.
Авторизация | Регистрация
Хочешь лучшие торренты? Добавь свой email!
Добавить

Торрент скачать бесплатно

» » Моди / Maudie (2016) HDRip [MVO] [AD] торрент скачать бесплатно




    Моди / Maudie (2016) HDRip [MVO] [AD] торрент скачать бесплатно

    Опубликовал: Админ | Дата: 7-11-2017, 05:00 | Просмотров: 0

    Производство: Ирландия, Канада/H Is 4 Productions, Landscape Entertainment, Painted House Films
    Жанр: Драма, Мелодрама
    Режиссер: Эшлин Уолш

    Актеры
    Итан Хоук, Салли Хокинс, Кари Матчетт, Билли Маклеллан, Захари Беннетт, Габриель Роз, Марта Бернард, Лоуренс Бэрри, Ник Секстон

    Описание

    Правдивая история невероятного романа между скупым рыботорговцем Эверетт и его экономкой Моди, чьи руки искалечила болезнь. Холостяк-затворник, покоренный ее силой и светом, помогает Моди раскрыться в творчестве и стать всенародно любимой художницей.

    Рейтинг MPAA: PG-13 (детям до 13 лет просмотр нежелателен)
    Релиз от: KOSHARA
    Продолжительность: 01: 57: 22
    Качество видео: HDRip
    Перевод: Многоголосый закадровый, любительский (@MUZOBOZ@)
    Субтитры: отсутствуют
    Реклама: присутствуют аудио и видео вставки рекламы
    Видео: Xvid, 720x384, ~1465 Kbps
    Аудио: AC3, 2 ch, 192 Kbps

    General
    Complete name : /media/win/TORRENT/UPLOAD TORRENTS/Maudie.2016.P.HDRip.avi
    Format : AVI
    Format/Info : Audio Video Interleave
    File size : 1.37 GiB
    Duration : 1 h 57 min
    Overall bit rate : 1 667 kb/s
    Writing application : VirtualDubMod 1.5.10.2 (build 2540/release)
    Writing library : VirtualDubMod build 2540/release
    Video
    ID : 0
    Format : MPEG-4 Visual
    Format profile : Advanced Simple@L5
    Format settings : BVOP2
    Format settings, BVOP : 2
    Format settings, QPel : No
    Format settings, GMC : No warppoints
    Format settings, Matrix : Default (MPEG)
    Codec ID : XVID
    Codec ID/Hint : XviD
    Duration : 1 h 57 min
    Bit rate : 1 466 kb/s
    Width : 720 pixels
    Height : 384 pixels
    Display aspect ratio : 1.85: 1
    Frame rate : 23.976 (24000/1001) FPS
    Color space : YUV
    Chroma subsampling : 4: 2: 0
    Bit depth : 8 bits
    Scan type : Progressive
    Compression mode : Lossy
    Bits/(Pixel*Frame) : 0.221
    Stream size : 1.20 GiB (88%)
    Writing library : XviD 1.2.1 (UTC 2008-12-04)
    Audio
    ID : 1
    Format : AC-3
    Format/Info : Audio Coding 3
    Codec ID : 2000
    Duration : 1 h 57 min
    Bit rate mode : Constant
    Bit rate : 192 kb/s
    Channel(s) : 2 channels
    Channel positions : Front: L R
    Sampling rate : 48.0 kHz
    Frame rate : 31.250 FPS (1536 SPF)
    Bit depth : 16 bits
    Compression mode : Lossy
    Stream size : 161 MiB (12%)
    Alignment : Split accross interleaves
    Interleave, duration : 42 ms (1.00 video frame)
    Interleave, preload duration : 500 ms
    Service kind : Complete Main

    Скриншоты для ознакомления



    Все одноименные релизы в Клубе
    Время раздачи: c 09: 00 до 22: 00 до пяти скачавших (до появления первых 3-5 скачавших)


    Моди/Maudie (2016) HDRip [MVO] [AD]
    загрузка...
    Рейтинг →
     (голосов: 1, оценка 3/5, голосовать можно 1 раз )

    Другие торренты по теме:

  • Формула власти. премьер-министр Индии Нарендра Моди (06.02.2016) SATRip


    • Комментарии (0):

      Информация

      Информация

        Посетители, находящиеся в группе Гости, не могут оставлять комментарии в данной новости.

        ↓ Меню




        ↓ Опрос

        Вы добавили сайт в закладки?
        Да
        Нет


        Top 10 за месяц (Другое)