.
Авторизация | Регистрация
Хочешь лучшие торренты? Добавь свой email!
Добавить

Торрент скачать бесплатно

» » Сквозь линию / Across the Line (2015) HDRip [MVO] [AD] торрент скачать бесплатно




    Сквозь линию / Across the Line (2015) HDRip [MVO] [AD] торрент скачать бесплатно

    Опубликовал: Админ | Дата: 7-11-2017, 05:00 | Просмотров: 0

    Производство: Канада
    Жанр: Драма
    Режиссер: Директор Икс
    Продюсер: Амос Эйдитай, Майкл Донован, Mark Gosine

    Актеры
    Сара Джеффри, Стэфан Джеймс, Джанет Рэкуэл, Шамир Андерсон, Стивен Лав, Джим Кодрингтон, Кара Рикеттс, Тейлор Олсон, Джеки Торренс, Хью Томпсон

    Описание

    В общине с расовым делением в Новой Шотландии проживает подающий большие надежды чернокожий хоккеист. Многие встречают новую звезду с неодобрением, да и самому Мэтти приходиться преодолевать многие трудности на своём пути. Сможет ли черный парень в конце-концов попасть в профессиональную команду по хоккею и достичь мечты? Всё зависит только от него самого.

    Дата мировой премьеры: 19 сентября 2015
    Продолжительность: 01: 28: 12
    Качество видео: HDRip
    Перевод: Многоголосый закадровый
    Субтитры: Отсутствуют
    Реклама: Присутствуют вставки видео, голосовой и текстовой рекламы
    Видео: Xvid, 720x384, ~1710 Kbps
    Аудио: AC3, 2 ch, 448 Kbps

    Общее
    Полное имя : D: ВидеоtorrrentAcross.the.Line.2015.P.HDRip.14OOMB.avi
    Формат : AVI
    Формат/Информация : Audio Video Interleave
    Размер файла : 1, 34 Гбайт
    Продолжительность : 1 ч. 28 м.
    Общий поток : 2169 Кбит/сек
    Видео
    Идентификатор : 0
    Формат : MPEG-4 Visual
    Профиль формата : Advanced Simple@L5
    Параметр BVOP формата : 2
    Параметр QPel формата : Нет
    Параметр GMC формата : Без точки перехода
    Параметр матрицы формата : Default (MPEG)
    Идентификатор кодека : XVID
    Идентификатор кодека/Подсказка : XviD
    Продолжительность : 1 ч. 28 м.
    Битрейт : 1710 Кбит/сек
    Ширина : 720 пикселей
    Высота : 384 пикселя
    Соотношение сторон : 1, 85: 1
    Частота кадров : 23, 976 (24000/1001) кадра/сек
    Цветовое пространство : YUV
    Субдискретизация насыщенности : 4: 2: 0
    Битовая глубина : 8 бит
    Тип развёртки : Прогрессивная
    Метод сжатия : С потерями
    Бит/(Пиксели*Кадры) : 0.258
    Размер потока : 1, 05 Гбайт (79%)
    Библиотека кодирования : XviD 1.2.1 (UTC 2008-12-04)
    Аудио
    Идентификатор : 1
    Формат : AC-3
    Формат/Информация : Audio Coding 3
    Параметр Endianness формата : Big
    Идентификатор кодека : 2000
    Продолжительность : 1 ч. 28 м.
    Вид битрейта : Постоянный
    Битрейт : 448 Кбит/сек
    Каналы : 2 канала
    Расположение каналов : Front: L R
    Частота : 48, 0 КГц
    Частота кадров : 31, 250 кадров/сек (1536 SPF)
    Битовая глубина : 16 бит
    Метод сжатия : С потерями
    Размер потока : 283 Мбайт (21%)
    Выравнивание : Соединение по промежуткам
    Продолжительность промежутка : 32 мс. (0, 77 видеокадр)
    ServiceKind/String : Complete Main

    Скриншоты для ознакомления



    Все одноименные релизы в Клубе
    Время раздачи: 24/7 (до появления первых 3-5 скачавших)


    Сквозь линию/Across the Line (2015) HDRip [MVO] [AD]
    загрузка...
    Рейтинг →
     (голосов: 1, оценка 5/5, голосовать можно 1 раз )

    Другие торренты по теме:

  • Сквозь ледяную мглу (1965) TVRip
  • Metallica: Сквозь невозможное / Metallica Through the Never (2013) HDRip
  • Metallica: Сквозь невозможное / Metallica Through the Never (2013) BDRip [720p] скачать через торрент бесплатно
  • NG: Больше чем фокусы с Ди Эм Си: Хождение сквозь стены / Beyond Magic With DMC (2014) SATRip (Серия 2)
  • Сквозь горизонт / Event Horizon (1997) BDRemux [1080p] скачать через торрент бесплатно
  • Сквозь горизонт / Event Horizon (1997) BDRip
  • Картины Хаббла (Вселенная сквозь призму телескопа Хаббл) / Hubbles Canvas (2007) HDTVRip [H.264 / 720p] [1-6 серия из 6]
  • Картины Хаббла (Вселенная сквозь призму телескопа Хаббл) / Hubbles Canvas (2007) HDTVRip [H.264 / 720p] [1-6 серия из 6]


    • Комментарии (0):

      Информация

      Информация

        Посетители, находящиеся в группе Гости, не могут оставлять комментарии в данной новости.

        ↓ Меню




        ↓ Опрос

        Вы добавили сайт в закладки?
        Да
        Нет


        Top 10 за месяц (Другое)