.
Авторизация | Регистрация
Хочешь лучшие торренты? Добавь свой email!
Добавить

Торрент скачать бесплатно

» » Смертоносная земля / Killing Ground (2016) HDRip [MVO] [AD] торрент скачать бесплатно




    Смертоносная земля / Killing Ground (2016) HDRip [MVO] [AD] торрент скачать бесплатно

    Опубликовал: Админ | Дата: 6-11-2017, 05:00 | Просмотров: 0

    Производство: Австралия
    Жанр: Ужасы, Триллер
    Режиссер: Дэмиен Пауэр
    Продюсер: Лиза Шонесси, Джо Уэзерстоун, Майкл Гудински

    Актеры
    Харриет Дайер, Йен Медоуз, Тиэрни Коуплэнд, Аарон Педерсен, Мая Стенж, Стивен Хантер, Аарон Гленнэйн, Митци Рулманн, Эйрли Доддс, Джулиан Гарнер

    Описание

    Сэм и Йен решили провести выходные в палатке у озера в лесу. Природа, тишина — красота!
    На месте парочка обнаруживает другую палатку и никого рядом. На следующий день тишина становится подозрительной, а когда посреди леса вдруг обнаруживается чумазый годовалый ребёнок возникает повод для серьёзного беспокойства.

    Дата мировой премьеры: 4 августа 2016
    Продолжительность: 01: 28: 47
    Качество видео: HDRip
    Перевод: Многоголосый закадровый, профессиональный (Синема УС)
    Субтитры: Русские, вшитые неотключаемые (на песню)
    Реклама: Присутствуют вставки видео, голосовой и текстовой рекламы
    Видео: Xvid, 720x304, ~1714 Kbps
    Аудио: AC3, 2 ch, 448 Kbps

    Общее
    Полное имя : D: ВидеоtorrrentKilling.Ground.2016.P.HDRip.14OOMB.avi
    Формат : AVI
    Формат/Информация : Audio Video Interleave
    Размер файла : 1, 35 Гбайт
    Продолжительность : 1 ч. 28 м.
    Общий поток : 2174 Кбит/сек
    Видео
    Идентификатор : 0
    Формат : MPEG-4 Visual
    Профиль формата : Advanced Simple@L5
    Параметр BVOP формата : 2
    Параметр QPel формата : Нет
    Параметр GMC формата : Без точки перехода
    Параметр матрицы формата : Default (MPEG)
    Идентификатор кодека : XVID
    Идентификатор кодека/Подсказка : XviD
    Продолжительность : 1 ч. 28 м.
    Битрейт : 1714 Кбит/сек
    Ширина : 720 пикселей
    Высота : 304 пикселя
    Соотношение сторон : 2, 35: 1
    Частота кадров : 23, 976 (24000/1001) кадра/сек
    Цветовое пространство : YUV
    Субдискретизация насыщенности : 4: 2: 0
    Битовая глубина : 8 бит
    Тип развёртки : Прогрессивная
    Метод сжатия : С потерями
    Бит/(Пиксели*Кадры) : 0.327
    Размер потока : 1, 06 Гбайт (79%)
    Библиотека кодирования : XviD 1.2.1 (UTC 2008-12-04)
    Аудио
    Идентификатор : 1
    Формат : AC-3
    Формат/Информация : Audio Coding 3
    Параметр Endianness формата : Big
    Идентификатор кодека : 2000
    Продолжительность : 1 ч. 28 м.
    Вид битрейта : Постоянный
    Битрейт : 448 Кбит/сек
    Каналы : 2 канала
    Расположение каналов : Front: L R
    Частота : 48, 0 КГц
    Частота кадров : 31, 250 кадров/сек (1536 SPF)
    Битовая глубина : 16 бит
    Метод сжатия : С потерями
    Задержка видео : 32 мс.
    Размер потока : 285 Мбайт (21%)
    Выравнивание : Разделение по промежуткам
    Продолжительность промежутка : 32 мс. (0, 77 видеокадр)
    ServiceKind/String : Complete Main

    Скриншоты для ознакомления



    Все одноименные релизы в Клубе
    Время раздачи: 24/7 (до появления первых 3-5 скачавших)


    Смертоносная земля/Killing Ground (2016) HDRip [MVO] [AD]
    загрузка...
    Рейтинг →
     (голосов: 1, оценка 4/5, голосовать можно 1 раз )

    Другие торренты по теме:

  • NG. Бушующие миры: Смертоносная пыль / Storm Worlds: Deadly Dust (2010) HDTVRip [H.264 / 720p] [3-я серия из 3] скачать через торрент бесплатно


    • Комментарии (0):

      Информация

      Информация

        Посетители, находящиеся в группе Гости, не могут оставлять комментарии в данной новости.

        ↓ Меню




        ↓ Опрос

        Вы добавили сайт в закладки?
        Да
        Нет


        Top 10 за месяц (Другое)