.
Авторизация | Регистрация
Хочешь лучшие торренты? Добавь свой email!
Добавить

Торрент скачать бесплатно

» » Сеть / Geumool (2016) WEB-DLRip [H.264 / 720p-LQ] [MVO] [AD] торрент скачать бесплатно




    Сеть / Geumool (2016) WEB-DLRip [H.264 / 720p-LQ] [MVO] [AD] торрент скачать бесплатно

    Опубликовал: Админ | Дата: 1-11-2017, 05:01 | Просмотров: 0

    Производство: Корея Южная
    Жанр: Драма
    Режиссер: Ким Ки Дук

    Актеры
    Сын Бом Рю, Вон Гын Ли, Ён Мин Ким, Ын У Ли, Су Ан Ким, Гви Хва Чхве, Ха Дам Чжон, Чжэ Рён Чо, Хён Мин Ян, Чжун Сок Хо

    Описание

    Бедный рыбак Нам Чхор-у скромно, но счастливо живёт с женой и дочерью на северном берегу реки, которая разделяет Северную и Южную Кореи. У него есть специальный допуск на ловлю рыбы в пограничной зоне и все пограничники ему доверяют: они прекрасно знают, что Нам никогда не посмеет пересечь невидимую водную границу. Но однажды мотор его лодки наматывает сеть и ломается. Нама уносит к южному берегу, где он сразу оказывается в руках спецслужб, которые не очень понимают, что с ним делать...

    Возраст: 16+ (зрителям, достигшим 16 лет)
    Продолжительность: 01: 53: 01
    Качество видео: WEB-DLRip
    Перевод: Любительский многоголосый (Колобок)
    Субтитры: Отсутствуют
    Реклама: Присутствуют вставки видео, голосовой и текстовой рекламы!
    Видео: AVC, 1280x692 (1.850), 23.976 fps, 3 734 Kbps (0.176 bit/pixel)
    Аудио: AC-3, 48.0 KHz, 2 ch, 192 Kbps, CBR

    Общее
    Уникальный идентификатор : 172204150418977264628965466734139902577 (0x818D501FB79F54C19CB5B7F51A2D8A71)
    Полное имя : D: NNMСетьSetj 2016 WEB-DLRip 720p-LQ.mkv
    Формат : Matroska
    Версия формата : Version 4/Version 2
    Размер файла : 3, 16 Гбайт
    Продолжительность : 1 ч. 53 м.
    Режим общего битрейта : Переменный
    Общий поток : 4005 Кбит/сек
    Дата кодирования : UTC 2017-10-31 11: 27: 36
    Программа кодирования : mkvmerge v6.9.1 (\'Blue Panther\') 32bit built on Apr 18 2014 18: 15: 44
    Библиотека кодирования : libebml v1.3.0 + libmatroska v1.4.1
    Видео
    Идентификатор : 1
    Формат : AVC
    Формат/Информация : Advanced Video Codec
    Профиль формата : High@L4.1
    Параметр CABAC формата : Да
    Параметр ReFrames формата : 9 кадров
    Идентификатор кодека : V_MPEG4/ISO/AVC
    Продолжительность : 1 ч. 53 м.
    Вид битрейта : Переменный
    Битрейт : 3734 Кбит/сек
    Максимальный битрейт : 4300 Кбит/сек
    Ширина : 1280 пикселей
    Высота : 692 пикселя
    Соотношение сторон : 1, 85: 1
    Режим частоты кадров : Постоянный
    Частота кадров : 23, 976 (24000/1001) кадра/сек
    Стандарт вещания : Component
    Цветовое пространство : YUV
    Субдискретизация насыщенности : 4: 2: 0
    Битовая глубина : 8 бит
    Тип развёртки : Прогрессивная
    Бит/(Пиксели*Кадры) : 0.176
    Размер потока : 2, 95 Гбайт (93%)
    Default : Да
    Forced : Нет
    Аудио
    Идентификатор : 2
    Формат : AC-3
    Формат/Информация : Audio Coding 3
    Расширение режима : CM (complete main)
    Параметр Endianness формата : Big
    Идентификатор кодека : A_AC3
    Продолжительность : 1 ч. 53 м.
    Вид битрейта : Постоянный
    Битрейт : 192 Кбит/сек
    Каналы : 2 канала
    Расположение каналов : Front: L R
    Частота : 48, 0 КГц
    Частота кадров : 31, 250 кадров/сек (1536 spf)
    Битовая глубина : 16 бит
    Метод сжатия : С потерями
    Задержка видео : 31 мс.
    Размер потока : 155 Мбайт (5%)
    Default : Да
    Forced : Нет

    Скриншоты для ознакомления



    Все одноименные релизы в Клубе
    Время раздачи: Круглосуточно до 10 скачавших


    Сеть/Geumool (2016) WEB-DLRip [H.264/720p-LQ] [MVO] [AD]
    загрузка...
    Рейтинг →
     (голосов: 1, оценка 5/5, голосовать можно 1 раз )

    Другие торренты по теме:

  • Сеть / Geumool (2016) WEB-DLRip [MVO] [AD]


    • Комментарии (0):

      Информация

      Информация

        Посетители, находящиеся в группе Гости, не могут оставлять комментарии в данной новости.

        ↓ Меню




        ↓ Опрос

        Вы добавили сайт в закладки?
        Да
        Нет


        Top 10 за месяц (Другое)