.
Авторизация | Регистрация
Хочешь лучшие торренты? Добавь свой email!
Добавить

Торрент скачать бесплатно

» » Сильва (1981) DVBRip [H.264] [hand made реставрация] торрент скачать бесплатно




    Сильва (1981) DVBRip [H.264] [hand made реставрация] торрент скачать бесплатно

    Опубликовал: Админ | Дата: 1-11-2017, 05:01 | Просмотров: 0

    Производство: СССР, Ленфильм
    Жанр: Музыкальный, Мелодрама, Комедия
    Режиссер: Ян Фрид

    Актеры
    Жанна Глебова, Ивар Калныньш, Виталий Соломин, Мария Соломина, Игорь Дмитриев, Татьяна Пилецкая, Павел Кадочников, Михаил Светин, Виктория Горшенина, Владимир Басов, Нина Алисова

    Описание

    По мотивам либретто Л. Штейна и Б. Йенбаха. Будущий князь Воляпюк, а ныне просто самолюбивый молодой офицер по имени Эдвин и певица Сильва Вареску полюбили друг друга. Эдвин даже готов пойти наперекор воле знатных родителей и жениться — несмотря на неизбежный скандал.

    Возраст: 0+ (для любой зрительской аудитории)
    Релиз от: smithland
    Продолжительность: 02: 19: 12
    Качество видео: DVBRip
    Видео: AVC/H.264, 720x408, ~1300 kb/s
    Аудио: AC3, 2 ch, 160 kb/s

    General
    Unique ID : 186828901256992049147305517580565343955 (0x8C8DF002AC2FCE2BA9984BCAC947EED3)
    Complete name : Сильва.mkv
    Format : Matroska
    Format version : Version 4/Version 2
    File size : 1.42 GiB
    Duration : 2 h 19 min
    Overall bit rate : 1 458 kb/s
    Movie name : Сильва 1981 (rip by smithland)
    Encoded date : UTC 2017-10-30 12: 54: 07
    Writing application : mkvmerge v16.0.0 (\'Protest\') 64-bit
    Writing library : libebml v1.3.5 + libmatroska v1.4.8
    Cover : Yes
    Attachments : COVER.jpg
    Video
    ID : 1
    Format : AVC
    Format/Info : Advanced Video Codec
    Format profile : High@L4
    Format settings, CABAC : Yes
    Format settings, RefFrames : 10 frames
    Codec ID : V_MPEG4/ISO/AVC
    Duration : 2 h 19 min
    Bit rate : 1 300 kb/s
    Width : 720 pixels
    Height : 408 pixels
    Display aspect ratio : 16: 9
    Frame rate mode : Constant
    Frame rate : 25.000 FPS
    Color space : YUV
    Chroma subsampling : 4: 2: 0
    Bit depth : 8 bits
    Scan type : Progressive
    Bits/(Pixel*Frame) : 0.177
    Stream size : 1.26 GiB (89%)
    Writing library : x264 core 146 r2538 121396c
    Encoding settings : cabac=1/ref=10/deblock=1: -1: -1/analyse=0x3: 0x113/me=umh/subme=11/psy=1/psy_rd=1.15: 0.27/mixed_ref=1/me_range=20/chroma_me=1/trellis=2/8x8dct=1/cqm=0/deadzone=21, 11/fast_pskip=0/chroma_qp_offset=-4/threads=12/lookahead_threads=1/sliced_threads=0/nr=0/decimate=0/interlaced=0/bluray_compat=0/constrained_intra=0/bframes=5/b_pyramid=2/b_adapt=1/b_bias=0/direct=1/weightb=1/open_gop=1/weightp=2/keyint=250/keyint_min=25/scenecut=40/intra_refresh=0/rc_lookahead=50/rc=abr/mbtree=1/bitrate=1300/ratetol=1.0/qcomp=0.60/qpmin=0/qpmax=69/qpstep=4/vbv_maxrate=14000/vbv_bufsize=14000/nal_hrd=none/filler=0/ip_ratio=1.40/aq=1: 1.10
    Language : Russian
    Default : Yes
    Forced : Yes
    Color range : Limited
    Color primaries : Generic film
    Audio
    ID : 2
    Format : AC-3
    Format/Info : Audio Coding 3
    Format settings, Endianness : Big
    Codec ID : A_AC3
    Duration : 2 h 19 min
    Bit rate mode : Constant
    Bit rate : 160 kb/s
    Channel(s) : 2 channels
    Channel positions : Front: L R
    Sampling rate : 48.0 kHz
    Frame rate : 31.250 FPS (1536 SPF)
    Bit depth : 16 bits
    Compression mode : Lossy
    Stream size : 159 MiB (11%)
    Language : Russian
    Service kind : Complete Main
    Default : Yes
    Forced : Yes


    Сильва (1981) DVBRip [H.264] [hand made реставрация]
    загрузка...
    Рейтинг →
     (голосов: 1, оценка 4/5, голосовать можно 1 раз )

    Другие торренты по теме:

  • Лаура Сильва | Идеальный сон по методу Сильва (2015) [MP3] скачать через торрент бесплатно
  • Лаура Сильва | Идеальный сон по методу Сильва (2015) [PDF] скачать через торрент бесплатно
  • Лаура Сильва | Воплощение желаний по методу Сильва (2012) [MP3] скачать через торрент бесплатно
  • Лаура Сильва | Воплощение желаний по методу Сильва (2012) [PDF] скачать через торрент бесплатно
  • Лаура Сильва | Управление весом по методу Сильва (2012) [MP3] скачать через торрент бесплатно
  • Лаура Сильва | Живи в ритме Сильва [Второе издание] (2013) [MP3] скачать через торрент бесплатно
  • Лаура Сильва | Управление весом по методу Сильва (2012) [PDF] скачать через торрент бесплатно
  • Лаура Сильва | Живи в ритме Сильва (Второе издание) (2013) [PDF] скачать через торрент бесплатно


    • Комментарии (0):

      Информация

      Информация

        Посетители, находящиеся в группе Гости, не могут оставлять комментарии в данной новости.

        ↓ Меню




        ↓ Опрос

        Вы добавили сайт в закладки?
        Да
        Нет


        Top 10 за месяц (Другое)