.
Авторизация | Регистрация
Хочешь лучшие торренты? Добавь свой email!
Добавить

Торрент скачать бесплатно

» » Пёс Бандит / The Bandit Hound (2016) DVDRip [MVO] [AD] торрент скачать бесплатно



    Пёс Бандит / The Bandit Hound (2016) DVDRip [MVO] [AD] торрент скачать бесплатно

    Опубликовал: Админ | Дата: 31-10-2017, 05:00 | Просмотров: 0

    Производство: США
    Жанр: Комедия
    Режиссер: Мишель Дэннер

    Актеры
    Джадд Нельсон, Кэтрин Белл, Лу Ферриньо, Пол Сорвино, Джо Флениган, Кристин Данфорд, Терри Уолтерс, Энди МакДермотт, Анна МакНивен, Танна Фредерик

    Описание

    Милый пёсик по имени Бандит начинает воровать деньги, чтобы помочь семье, забравшей его из приюта. Но, сам того не желая, он втягивает своих владельцев в опасный преступный мир, где его давно ждут бывшие напарники.

    Дата мировой премьеры: 12.04.2016
    Продолжительность: 01: 24: 42
    Качество видео: DVDRip
    Перевод: Многоголосый закадровый (Синема УС)
    Субтитры: Отсутствуют
    Реклама: Присутствуют вставки видео, голосовой и текстовой рекламы
    Видео: Xvid, 720x400, ~1917 Kbps
    Аудио: AC3, 2 ch, 384 Kbps

    Общее
    Полное имя : D: ВидеоtorrrentThe.Bandit.Hound.2016.P.DVDRip.14OOMB.avi
    Формат : AVI
    Формат/Информация : Audio Video Interleave
    Размер файла : 1, 37 Гбайт
    Продолжительность : 1 ч. 24 м.
    Общий поток : 2310 Кбит/сек
    Программа кодирования : VirtualDubMod 1.5.10.2 (build 2540/release)
    Библиотека кодирования : VirtualDubMod build 2540/release
    Видео
    Идентификатор : 0
    Формат : MPEG-4 Visual
    Профиль формата : Advanced Simple@L5
    Параметр BVOP формата : 2
    Параметр QPel формата : Нет
    Параметр GMC формата : Без точки перехода
    Параметр матрицы формата : Default (MPEG)
    Идентификатор кодека : XVID
    Идентификатор кодека/Подсказка : XviD
    Продолжительность : 1 ч. 24 м.
    Битрейт : 1917 Кбит/сек
    Ширина : 720 пикселей
    Высота : 400 пикселей
    Соотношение сторон : 16: 9
    Частота кадров : 23, 976 (24000/1001) кадра/сек
    Цветовое пространство : YUV
    Субдискретизация насыщенности : 4: 2: 0
    Битовая глубина : 8 бит
    Тип развёртки : Прогрессивная
    Метод сжатия : С потерями
    Бит/(Пиксели*Кадры) : 0.278
    Размер потока : 1, 13 Гбайт (83%)
    Библиотека кодирования : XviD 1.2.1 (UTC 2008-12-04)
    Аудио
    Идентификатор : 1
    Формат : AC-3
    Формат/Информация : Audio Coding 3
    Параметр Endianness формата : Big
    Идентификатор кодека : 2000
    Продолжительность : 1 ч. 24 м.
    Вид битрейта : Постоянный
    Битрейт : 384 Кбит/сек
    Каналы : 2 канала
    Расположение каналов : Front: L R
    Частота : 48, 0 КГц
    Частота кадров : 31, 250 кадров/сек (1536 SPF)
    Битовая глубина : 16 бит
    Метод сжатия : С потерями
    Размер потока : 233 Мбайт (17%)
    Выравнивание : Разделение по промежуткам
    Продолжительность промежутка : 42 мс. (1, 00 видеокадр)
    Время предзагрузки промежутка : 500 мс.
    ServiceKind/String : Complete Main

    Скриншоты для ознакомления



    Все одноименные релизы в Клубе
    Время раздачи: 24/7 (до появления первых 3-5 скачавших)

    Прямая ссылка скачивания через uTorrent


    Пёс Бандит/The Bandit Hound (2016) DVDRip [MVO] [AD]
    загрузка...
    Рейтинг →
     (голосов: 1, оценка 3/5, голосовать можно 1 раз )

    Другие торренты по теме:

  • Смоки и Бандит / Smokey And The Bandit (1977) HDRip [H.264] скачать через торрент бесплатно
  • Смоки и Бандит 2 / Smokey and the Bandit 2 (1980) WEB-DLRip [H.264] скачать через торрент бесплатно
  • Смоки и Бандит 3 / Smokey and the Bandit 3 (1983) DVDRip [H.264] скачать через торрент бесплатно
  • Целующийся бандит / The Kissing Bandit (1948) DVDRip [H.264]


    • Комментарии (0):

      Информация

      Информация

        Посетители, находящиеся в группе Гости, не могут оставлять комментарии в данной новости.

        ↓ Меню




        ↓ Опрос

        Вы добавили сайт в закладки?
        Да
        Нет


        Top 10 за месяц (Другое)