.
Авторизация | Регистрация
Хочешь лучшие торренты? Добавь свой email!
Добавить

Торрент скачать бесплатно

» » Камера бесконечности / Infinity Chamber (2016) WEB-DLRip [MVO] [AD] торрент скачать бесплатно




    Камера бесконечности / Infinity Chamber (2016) WEB-DLRip [MVO] [AD] торрент скачать бесплатно

    Опубликовал: Админ | Дата: 31-10-2017, 05:00 | Просмотров: 3

    Производство: США
    Жанр: Фантастика, Триллер
    Режиссер: Трейвис Миллоу
    Продюсер: Thomas Eberts, Трейвис Миллоу, Laurie Sheldon

    Актеры
    Крис Келли, Кассандра Кларк, Чак Клейн, Брэндон Лумис, Гаррет Бекке, Андреа Энни, Оуэнс Сьюзан, Белкин Брайан, Раговин Аманда, Лау Луи Клоц

    Описание

    Главного героя заперли в автоматизированной тюрьме. Ему предстоит обхитрить компьютер, чтобы сбежать и попытаться найти дорогу назад — во внешний мир, которого уже может не существовать.

    Дата мировой премьеры: 03.12.2016
    Продолжительность: 01: 45: 38
    Качество видео: WEB-DLRip
    Перевод: Многоголосый закадровый (MUZOBOZ)
    Субтитры: Отсутствуют
    Реклама: Присутствуют вставки видео, голосовой и текстовой рекламы
    Видео: Xvid, 720x304, ~1635 Kbps
    Аудио: AC3, 2 ch, 192 Kbps

    Общее
    Полное имя : D: ВидеоtorrrentInfinity.Chamber.2016.P.WEB-DLRip.14OOMB.avi
    Формат : AVI
    Формат/Информация : Audio Video Interleave
    Размер файла : 1, 36 Гбайт
    Продолжительность : 1 ч. 45 м.
    Общий поток : 1837 Кбит/сек
    Программа кодирования : VirtualDubMod 1.5.10.2 (build 2540/release)
    Библиотека кодирования : VirtualDubMod build 2540/release
    Видео
    Идентификатор : 0
    Формат : MPEG-4 Visual
    Профиль формата : Advanced Simple@L5
    Параметр BVOP формата : 2
    Параметр QPel формата : Нет
    Параметр GMC формата : Без точки перехода
    Параметр матрицы формата : Default (MPEG)
    Идентификатор кодека : XVID
    Идентификатор кодека/Подсказка : XviD
    Продолжительность : 1 ч. 45 м.
    Битрейт : 1635 Кбит/сек
    Ширина : 720 пикселей
    Высота : 304 пикселя
    Соотношение сторон : 2, 35: 1
    Частота кадров : 23, 976 (24000/1001) кадра/сек
    Цветовое пространство : YUV
    Субдискретизация насыщенности : 4: 2: 0
    Битовая глубина : 8 бит
    Тип развёртки : Прогрессивная
    Метод сжатия : С потерями
    Бит/(Пиксели*Кадры) : 0.312
    Размер потока : 1, 21 Гбайт (89%)
    Библиотека кодирования : XviD 1.2.1 (UTC 2008-12-04)
    Аудио
    Идентификатор : 1
    Формат : AC-3
    Формат/Информация : Audio Coding 3
    Параметр Endianness формата : Big
    Идентификатор кодека : 2000
    Продолжительность : 1 ч. 45 м.
    Вид битрейта : Постоянный
    Битрейт : 192 Кбит/сек
    Каналы : 2 канала
    Расположение каналов : Front: L R
    Частота : 48, 0 КГц
    Частота кадров : 31, 250 кадров/сек (1536 SPF)
    Битовая глубина : 16 бит
    Метод сжатия : С потерями
    Размер потока : 145 Мбайт (10%)
    Выравнивание : Разделение по промежуткам
    Продолжительность промежутка : 42 мс. (1, 00 видеокадр)
    Время предзагрузки промежутка : 500 мс.
    ServiceKind/String : Complete Main

    Скриншоты для ознакомления



    Все одноименные релизы в Клубе
    Время раздачи: 24/7 (до появления первых 3-5 скачавших)


    Камера бесконечности/Infinity Chamber (2016) WEB-DLRip [MVO] [AD]
    загрузка...
    Рейтинг →
     (голосов: 1, оценка 5/5, голосовать можно 1 раз )

    Другие торренты по теме:

  • Камера бесконечности / Infinity Chamber (2016) WEB-DLRip [H.264 / 1080p-LQ] [MVO] [AD]


    • Комментарии (0):

      Информация

      Информация

        Посетители, находящиеся в группе Гости, не могут оставлять комментарии в данной новости.

        ↓ Меню




        ↓ Опрос

        Вы добавили сайт в закладки?
        Да
        Нет


        Top 10 за месяц (Другое)