.
Авторизация | Регистрация
Хочешь лучшие торренты? Добавь свой email!
Добавить

Торрент скачать бесплатно

» » Камера бесконечности / Infinity Chamber (2016) WEB-DLRip [H.264 / 1080p-LQ] [MVO] [AD] торрент скачать бесплатно




    Камера бесконечности / Infinity Chamber (2016) WEB-DLRip [H.264 / 1080p-LQ] [MVO] [AD] торрент скачать бесплатно

    Опубликовал: Админ | Дата: 31-10-2017, 05:00 | Просмотров: 1

    Производство: США
    Жанр: Фантастика, Триллер
    Режиссер: Трейвис Миллоу
    Продюсер: Thomas Eberts, Трейвис Миллоу, Laurie Sheldon

    Актеры
    Крис Келли, Кассандра Кларк, Чак Клейн, Брэндон Лумис, Гаррет Бекке, Андреа Энни, Оуэнс Сьюзан, Белкин Брайан, Раговин Аманда, Лау Луи Клоц

    Описание

    Главного героя заперли в автоматизированной тюрьме. Ему предстоит обхитрить компьютер, чтобы сбежать и попытаться найти дорогу назад — во внешний мир, которого уже может не существовать.

    Дата мировой премьеры: 03.12.2016
    Продолжительность: 01: 45: 38
    Качество видео: WEB-DLRip
    Перевод: Многоголосый закадровый (MUZOBOZ)
    Субтитры: Отсутствуют
    Реклама: Присутствуют вставки видео, голосовой и текстовой рекламы
    Видео: H.264/1080p, 1920x800, ~4956 Kbps
    Аудио: AC3, 2 ch, 384 Kbps

    Общее
    Уникальный идентификатор : 227534239815983287769807522245891863901 (0xAB2D80263D7C8E11BEBCBDCC3E60355D)
    Полное имя : D: ВидеоtorrrentInfinity.Chamber.2016.P.WEB-DL.1O8Op.mkv
    Формат : Matroska
    Версия формата : Version 2
    Размер файла : 3, 94 Гбайт
    Продолжительность : 1 ч. 45 м.
    Режим общего битрейта : Переменный
    Общий поток : 5342 Кбит/сек
    Дата кодирования : UTC 2017-09-30 11: 15: 06
    Программа кодирования : mkvmerge v8.3.0 (\'Over the Horizon\') 64bit
    Библиотека кодирования : libebml v1.3.1 + libmatroska v1.4.2
    Видео
    Идентификатор : 2
    Формат : AVC
    Формат/Информация : Advanced Video Codec
    Профиль формата : High@L4.1
    Параметр CABAC формата : Да
    Параметр RefFrames формата : 5 кадров
    Идентификатор кодека : V_MPEG4/ISO/AVC
    Продолжительность : 1 ч. 45 м.
    Вид битрейта : Переменный
    Битрейт : 4956 Кбит/сек
    Максимальный битрейт : 5500 Кбит/сек
    Ширина : 1920 пикселей
    Высота : 800 пикселей
    Соотношение сторон : 2, 40: 1
    Режим частоты кадров : Постоянный
    Частота кадров : 23, 976 (24000/1001) кадра/сек
    Стандарт вещания : Component
    Цветовое пространство : YUV
    Субдискретизация насыщенности : 4: 2: 0
    Битовая глубина : 8 бит
    Тип развёртки : Прогрессивная
    Бит/(Пиксели*Кадры) : 0.135
    Размер потока : 3, 66 Гбайт (93%)
    Default : Да
    Forced : Нет
    Цветовой диапазон : Limited
    Основные цвета : BT.709
    Характеристики трансфера : BT.709
    Коэффициенты матрицы : BT.709
    Аудио
    Идентификатор : 1
    Формат : AC-3
    Формат/Информация : Audio Coding 3
    Параметр Endianness формата : Big
    Идентификатор кодека : A_AC3
    Продолжительность : 1 ч. 45 м.
    Вид битрейта : Постоянный
    Битрейт : 384 Кбит/сек
    Каналы : 2 канала
    Расположение каналов : Front: L R
    Частота : 48, 0 КГц
    Частота кадров : 31, 250 кадров/сек (1536 SPF)
    Битовая глубина : 16 бит
    Метод сжатия : С потерями
    Размер потока : 290 Мбайт (7%)
    ServiceKind/String : Complete Main
    Default : Да
    Forced : Нет

    Скриншоты для ознакомления



    Все одноименные релизы в Клубе
    Время раздачи: 24/7 (до появления первых 3-5 скачавших)


    Камера бесконечности/Infinity Chamber (2016) WEB-DLRip [H.264/1080p-LQ] [MVO] [AD]
    загрузка...
    Рейтинг →
     (голосов: 1, оценка 5/5, голосовать можно 1 раз )

    Другие торренты по теме:

  • Камера бесконечности / Infinity Chamber (2016) WEB-DLRip [MVO] [AD]


    • Комментарии (0):

      Информация

      Информация

        Посетители, находящиеся в группе Гости, не могут оставлять комментарии в данной новости.

        ↓ Меню




        ↓ Опрос

        Вы добавили сайт в закладки?
        Да
        Нет


        Top 10 за месяц (Другое)