.
Авторизация | Регистрация
Хочешь лучшие торренты? Добавь свой email!
Добавить

Торрент скачать бесплатно

» » Короткая волна / Shortwave (2016) WEB-DLRip [H.264 / 720p-LQ] [MVO] [AD] торрент скачать бесплатно




    Короткая волна / Shortwave (2016) WEB-DLRip [H.264 / 720p-LQ] [MVO] [AD] торрент скачать бесплатно

    Опубликовал: Админ | Дата: 28-10-2017, 05:00 | Просмотров: 1

    Производство: США
    Жанр: Фантастика, Триллер
    Режиссер: Райан Грегори Филлипс

    Актеры
    Кристобаль Тапия Монтт, Katie Carthen, Кайл Дэвис, Джей Эллис, Мик Игнис, Сара Малакул Лэйн, Santwon McCray, Thomas H. McDaniel, Хуанита Рингелинг, Nina Senicar

    Описание

    Некогда счастливая семейная пара Джош и Изабель Харрис сталкивается с немыслимым кошмаром, когда их маленькая дочь Аманда бесследно исчезает, лишив влюблённых смысла к дальнейшей жизни. Проходит время, надежды на возвращение Аманды нет и Харрисы перебираются в изолированный исследовательский центр, где Джош вместе с напарником Томасом планирует заниматься изучением коротковолновых радиосигналов в поисках сообщений из других миров. Все старания оправдываются, когда учёные фиксируют заветное зашифрованное послание внеземного происхождения.

    Дата мировой премьеры: 04.06.2016
    Продолжительность: 01: 29: 12
    Качество видео: WEB-DLRip
    Перевод: Двухголосый любительский
    Субтитры: Отсутствуют
    Реклама: Присутствуют вставки видео, голосовой и текстовой рекламы
    Видео: AVC/H.264, 1280x484, ~4847 Kbps
    Аудио: AC3, 2 ch, 192 Kbps

    Общее
    Уникальный идентификатор : 220503360317584732512255836461729424783 (0xA5E36706CA5CB6CC93EEA051F779A58F)
    Полное имя : D: ВидеоtorrrentShortwave.2016.720p.RecentFilms.mkv
    Формат : Matroska
    Версия формата : Version 4/Version 2
    Размер файла : 3, 14 Гбайт
    Продолжительность : 1 ч. 29 м.
    Общий поток : 5041 Кбит/сек
    Дата кодирования : UTC 2017-10-25 22: 21: 55
    Программа кодирования : mkvmerge v7.8.0 (\'River Man\') 64bit built on Mar 27 2015 16: 31: 37
    Библиотека кодирования : libebml v1.3.1 + libmatroska v1.4.2
    Видео
    Идентификатор : 1
    Формат : AVC
    Формат/Информация : Advanced Video Codec
    Профиль формата : Main@L4.2
    Параметр CABAC формата : Да
    Параметр RefFrames формата : 3 кадра
    Идентификатор кодека : V_MPEG4/ISO/AVC
    Продолжительность : 1 ч. 29 м.
    Битрейт : 4847 Кбит/сек
    Ширина : 1280 пикселей
    Высота : 484 пикселя
    Соотношение сторон : 2, 645
    Режим частоты кадров : Постоянный
    Частота кадров : 23, 976 (24000/1001) кадра/сек
    Стандарт вещания : NTSC
    Цветовое пространство : YUV
    Субдискретизация насыщенности : 4: 2: 0
    Битовая глубина : 8 бит
    Тип развёртки : Прогрессивная
    Бит/(Пиксели*Кадры) : 0.326
    Размер потока : 3, 02 Гбайт (96%)
    Язык : English
    Default : Да
    Forced : Нет
    Цветовой диапазон : Limited
    Основные цвета : BT.601 NTSC
    Характеристики трансфера : BT.601
    Коэффициенты матрицы : BT.601
    Аудио
    Идентификатор : 2
    Формат : AC-3
    Формат/Информация : Audio Coding 3
    Параметр Endianness формата : Big
    Идентификатор кодека : A_AC3
    Продолжительность : 1 ч. 29 м.
    Вид битрейта : Постоянный
    Битрейт : 192 Кбит/сек
    Каналы : 2 канала
    Расположение каналов : Front: L R
    Частота : 48, 0 КГц
    Частота кадров : 31, 250 кадров/сек (1536 SPF)
    Битовая глубина : 16 бит
    Метод сжатия : С потерями
    Размер потока : 123 Мбайт (4%)
    ServiceKind/String : Complete Main
    Default : Да
    Forced : Нет

    Скриншоты для ознакомления



    Все одноименные релизы в Клубе
    Время раздачи: 24/7 (до появления первых 3-5 скачавших)


    Короткая волна/Shortwave (2016) WEB-DLRip [H.264/720p-LQ] [MVO] [AD]
    загрузка...
    Рейтинг →
     (голосов: 1, оценка 3/5, голосовать можно 1 раз )

    Другие торренты по теме:

  • Фигурное Катание. Чемпионат России 2015. Женщины. Короткая программа. (25.12.2015) HDTVRip [H.264 / 720p-LQ] скачать через торрент бесплатно
  • Фигурное катание. Чемпионат Европы 2016. Женщины. Короткая программа. (27.01.2016) HDTVRip [H.264 / 720p-LQ]
  • Фигурное катание. Чемпионат Европы 2016. Танцы. Короткая программа. (28.01.2016) HDTVRip [H.264 / 720p-LQ]
  • Фигурное катание. Чемпионат Европы 2016. Мужчины. Короткая программа. (27.01.2016) HDTVRip [H.264 / 720p-LQ]
  • Фигурное катание. Чемпионат Европы 2016. Пары. Короткая программа. (29.01.2016) HDTVRip [H.264 / 720p-LQ]
  • Фигурное катание. Чемпионат мира 2016. Мужчины. Короткая программа. (30.03.2016) HDTVRip [H.264 / 720p-LQ]
  • Фигурное катание. Чемпионат мира 2016. Танцы на льду. Короткая программа. (30.03.2016) HDTVRip [H.264 / 720p-LQ]
  • Фигурное катание. Чемпионат мира 2016. Женщины. Короткая программа. (31.03.2016) HDTVRip [H.264 / 720p-LQ]


    • Комментарии (0):

      Информация

      Информация

        Посетители, находящиеся в группе Гости, не могут оставлять комментарии в данной новости.

        ↓ Меню




        ↓ Опрос

        Вы добавили сайт в закладки?
        Да
        Нет


        Top 10 за месяц (Другое)