.
Авторизация | Регистрация
Хочешь лучшие торренты? Добавь свой email!
Добавить

Торрент скачать бесплатно

» » Белый остров / White Island (2016) WEB-DLRip [H.264 / 720p-LQ] [MVO] [AD] торрент скачать бесплатно




    Белый остров / White Island (2016) WEB-DLRip [H.264 / 720p-LQ] [MVO] [AD] торрент скачать бесплатно

    Опубликовал: Админ | Дата: 26-10-2017, 05:00 | Просмотров: 1

    Производство: Великобритания
    Жанр: Комедия
    Режиссер: Бенжамин Тернер

    Актеры
    Линдон Огборн, Билли Зейн, Билли Бойд, Джоел Домметт, Example, Гала Гордон, Даррен Дэй, Овайн Артур, Крейг Гейзэй, Cheryl Fergison

    Описание

    Два друга случайно попадают на Ибицу и оказываются в центре разборок наркоторговцев, а также встречают давнего друга, который хочет свести счёты с жизнью.

    Дата мировой премьеры: 23.06.2016
    Продолжительность: 01: 32: 37
    Качество видео: WEB-DLRip
    Перевод: Многоголосый закадровый, профессиональный (Синема УС)
    Субтитры: Отсутствуют
    Реклама: Присутствуют вставки видео, голосовой и текстовой рекламы
    Видео: AVC/H.264, 1280x536, ~4148 Kbps
    Аудио: AC3, 2 ch, 384 Kbps

    Общее
    Уникальный идентификатор : 210890789376310507887307153104821018898 (0x9EA816B029A8112E91902988F0DFE112)
    Полное имя : D: ВидеоtorrrentWhite.Island.2016.P.WEB-DL.72Op.mkv
    Формат : Matroska
    Версия формата : Version 2
    Размер файла : 2, 93 Гбайт
    Продолжительность : 1 ч. 32 м.
    Режим общего битрейта : Переменный
    Общий поток : 4534 Кбит/сек
    Дата кодирования : UTC 2017-10-23 23: 47: 59
    Программа кодирования : mkvmerge v8.3.0 (\'Over the Horizon\') 64bit
    Библиотека кодирования : libebml v1.3.1 + libmatroska v1.4.2
    Видео
    Идентификатор : 1
    Формат : AVC
    Формат/Информация : Advanced Video Codec
    Профиль формата : High@L4.1
    Параметр CABAC формата : Да
    Параметр RefFrames формата : 12 кадров
    Идентификатор кодека : V_MPEG4/ISO/AVC
    Продолжительность : 1 ч. 32 м.
    Вид битрейта : Переменный
    Битрейт : 4148 Кбит/сек
    Максимальный битрейт : 4500 Кбит/сек
    Ширина : 1280 пикселей
    Высота : 536 пикселей
    Соотношение сторон : 2, 40: 1
    Режим частоты кадров : Постоянный
    Частота кадров : 23, 976 (24000/1001) кадра/сек
    Стандарт вещания : Component
    Цветовое пространство : YUV
    Субдискретизация насыщенности : 4: 2: 0
    Битовая глубина : 8 бит
    Тип развёртки : Прогрессивная
    Бит/(Пиксели*Кадры) : 0.252
    Размер потока : 2, 68 Гбайт (91%)
    Default : Да
    Forced : Нет
    Цветовой диапазон : Limited
    Основные цвета : BT.709
    Характеристики трансфера : BT.709
    Коэффициенты матрицы : BT.709
    Аудио
    Идентификатор : 2
    Формат : AC-3
    Формат/Информация : Audio Coding 3
    Параметр Endianness формата : Big
    Идентификатор кодека : A_AC3
    Продолжительность : 1 ч. 32 м.
    Вид битрейта : Постоянный
    Битрейт : 384 Кбит/сек
    Каналы : 2 канала
    Расположение каналов : Front: L R
    Частота : 48, 0 КГц
    Частота кадров : 31, 250 кадров/сек (1536 SPF)
    Битовая глубина : 16 бит
    Метод сжатия : С потерями
    Размер потока : 254 Мбайт (8%)
    ServiceKind/String : Complete Main
    Default : Да
    Forced : Нет

    Скриншоты для ознакомления




    Все одноименные релизы в Клубе
    Время раздачи: 24/7 (до появления первых 3-5 скачавших)


    Белый остров/White Island (2016) WEB-DLRip [H.264/720p-LQ] [MVO] [AD]
    загрузка...
    Рейтинг →
     (голосов: 1, оценка 5/5, голосовать можно 1 раз )

    Другие торренты по теме:

  • Белый остров / White Island (2016) WEB-DLRip [MVO] [AD]


    • Комментарии (0):

      Информация

      Информация

        Посетители, находящиеся в группе Гости, не могут оставлять комментарии в данной новости.

        ↓ Меню




        ↓ Опрос

        Вы добавили сайт в закладки?
        Да
        Нет


        Top 10 за месяц (Другое)