.
Авторизация | Регистрация
Хочешь лучшие торренты? Добавь свой email!
Добавить

Торрент скачать бесплатно

» » Трумэн / Truman (2015) BDRip [H.264 / 720р] [AD] торрент скачать бесплатно




    Трумэн / Truman (2015) BDRip [H.264 / 720р] [AD] торрент скачать бесплатно

    Опубликовал: Админ | Дата: 25-10-2017, 05:00 | Просмотров: 1

    Производство: Испания, Аргентина
    Жанр: Комедия, Драма
    Режиссер: Сеск Гай

    Актеры
    Рикардо Дарин, Хавьер Камара, Долорес Фонци, Эдуард Фернандес, Тройло, Алекс Брендемюль, Педро Касабланк, Хосе Луис Гомес, Хавьер Гутьеррес, Эльвира Мингес

    Описание

    К Хулиану неожиданно из Канады приезжает друг Томас после того, как узнаёт, что тот решает не продолжать борьбу с раком. Двое друзей, вместе с собакой Хулиана по кличке Трумэн, переживают четыре насыщенных дня.

    Продолжительность: 01: 50: 14
    Качество видео: BDRip
    Перевод: Многоголосый закадровый (Синема-УС)
    Субтитры: Отсутствуют
    Реклама: присутствует текстовая реклама
    Видео: AVC/H.264, 1280x688, ~5383 Kbps
    Аудио: AC3, 2 ch, 448 Kbps

    Общее
    Уникальный идентификатор : 215093104282744018391423910354273771474 (0xA1D16CCF3874751FAF3972766C151FD2)
    Полное имя : B: РаздачаТрумэн.2015.P.BDRip.72OP.mkv
    Формат : Matroska
    Версия формата : Version 2
    Размер файла : 4, 49 Гбайт
    Продолжительность : 1 ч. 50 м.
    Режим общего битрейта : Переменный
    Общий поток : 5833 Кбит/сек
    Дата кодирования : UTC 2017-10-20 16: 01: 04
    Программа кодирования : mkvmerge v8.3.0 (\'Over the Horizon\') 64bit
    Библиотека кодирования : libebml v1.3.1 + libmatroska v1.4.2
    Видео
    Идентификатор : 1
    Формат : AVC
    Формат/Информация : Advanced Video Codec
    Профиль формата : High@L4.1
    Настройки формата : CABAC/9 Ref Frames
    Параметр CABAC формата : Да
    Параметр RefFrames формата : 9 кадров
    Идентификатор кодека : V_MPEG4/ISO/AVC
    Продолжительность : 1 ч. 50 м.
    Вид битрейта : Переменный
    Битрейт : 5383 Кбит/сек
    Максимальный битрейт : 6000 Кбит/сек
    Ширина : 1280 пикселей
    Высота : 688 пикселей
    Соотношение сторон : 1, 85: 1
    Режим частоты кадров : Постоянный
    Частота кадров : 23, 976 (24000/1001) кадра/сек
    Стандарт вещания : Component
    Цветовое пространство : YUV
    Субдискретизация насыщенности : 4: 2: 0
    Битовая глубина : 8 бит
    Тип развёртки : Прогрессивная
    Бит/(Пиксели*Кадры) : 0.255
    Размер потока : 4, 14 Гбайт (92%)
    Default : Да
    Forced : Нет
    Цветовой диапазон : Limited
    Основные цвета : BT.709
    Характеристики трансфера : BT.709
    Коэффициенты матрицы : BT.709
    Аудио
    Идентификатор : 2
    Формат : AC-3
    Формат/Информация : Audio Coding 3
    Параметр Endianness формата : Big
    Идентификатор кодека : A_AC3
    Продолжительность : 1 ч. 50 м.
    Вид битрейта : Постоянный
    Битрейт : 448 Кбит/сек
    Каналы : 2 канала
    Расположение каналов : Front: L R
    Частота : 48, 0 КГц
    Частота кадров : 31, 250 кадров/сек (1536 SPF)
    Битовая глубина : 16 бит
    Метод сжатия : С потерями
    Размер потока : 353 Мбайт (8%)
    ServiceKind/String : Complete Main
    Default : Да
    Forced : Нет

    Скриншоты для ознакомления



    Все одноименные релизы в Клубе
    Время раздачи: 24/7 (круглосуточно) (до появления первых 3-5 скачавших)


    Трумэн/Truman (2015) BDRip [H.264/720р] [AD]
    загрузка...
    Рейтинг →
     (голосов: 1, оценка 5/5, голосовать можно 1 раз )

    Другие торренты по теме:

  • Трумэн Кэпот | Хладнокровное убийство (2015) [MP3]
  • Маргарет Трумэн | Убийство в верховном суде (2015) [MP3]
  • Трумэн Капоте | Завтрак у Тиффани (2017) [MP3]
  • Трумэн Капоте | Другие голоса, другие комнаты (2017) [MP3]
  • Трумэн Капоте | Хладнокровное убийство (2017) [MP3]


    • Комментарии (0):

      Информация

      Информация

        Посетители, находящиеся в группе Гости, не могут оставлять комментарии в данной новости.

        ↓ Меню




        ↓ Опрос

        Вы добавили сайт в закладки?
        Да
        Нет


        Top 10 за месяц (Другое)