.
Авторизация | Регистрация
Хочешь лучшие торренты? Добавь свой email!
Добавить

Торрент скачать бесплатно

» » Сеть / Geumool (2016) WEB-DLRip [MVO] [AD] торрент скачать бесплатно




    Сеть / Geumool (2016) WEB-DLRip [MVO] [AD] торрент скачать бесплатно

    Опубликовал: Админ | Дата: 21-10-2017, 18:15 | Просмотров: 3

    Производство: Корея Южная/Kim Ki-Duk Film, Next Entertainment World
    Жанр: Драма
    Режиссер: Ким Ки Дук

    Актеры
    Рю Сын-бом, Чо Джэ-рён, Чхве Гви-хва, Ан Джи-хе, Ли Вон-гын, Ким Су-ан, Хо Джун-сок

    Описание

    Бедный рыбак Нам Чул-ву скромно, но счастливо живёт с женой и дочерью на северном берегу реки, которая разделяет Северную и Южную Кореи. У него есть специальный допуск на ловлю рыбы в пограничной зоне и все пограничники ему доверяют: они прекрасно знают, что Нам никогда не посмеет пересечь невидимую водную границу. Но однажды мотор его лодки наматывает сеть и ломается. Нама уносит к южному берегу, где он сразу оказывается в руках спецслужб, которые не очень понимают, что с ним делать. Нама то подвергают жестоким и изнурительным допросам, чтобы выбить из него признание в шпионаже, то соблазняют прелестями жизни на Юге, чтобы сделать из него образцово-показательного перебежчика. Но всё, чего хочет Нам — это вернуться домой, где его ждут жена с дочкой… и ещё более жестокие спецслужбы КНДР.

    Возраст: 16+ (зрителям, достигшим 16 лет)
    Дата мировой премьеры: 31.08.2016
    Дата российской премьеры: 26.10.2017
    Релиз от: KOSHARA
    Продолжительность: 01: 53: 51
    Качество видео: WEB-DLRip
    Перевод: Многоголосый закадровый, любительский (КОЛОБОК)
    Субтитры: отсутствуют
    Реклама: присутствуют аудио и видео вставки рекламы
    Видео: Xvid, 720x384, ~1630 Kbps
    Аудио: AC3, 2 ch, 192 Kbps

    General
    Complete name : /media/win/TORRENT/UPLOAD TORRENTS/THE NET.2016.P.WEB-DLRip.avi
    Format : AVI
    Format/Info : Audio Video Interleave
    File size : 1.46 GiB
    Duration : 1 h 53 min
    Overall bit rate : 1 832 kb/s
    Writing application : VirtualDubMod 1.5.10.2 (build 2540/release)
    Writing library : VirtualDubMod build 2540/release
    Video
    ID : 0
    Format : MPEG-4 Visual
    Format profile : Advanced Simple@L5
    Format settings : BVOP2
    Format settings, BVOP : 2
    Format settings, QPel : No
    Format settings, GMC : No warppoints
    Format settings, Matrix : Default (MPEG)
    Codec ID : XVID
    Codec ID/Hint : XviD
    Duration : 1 h 53 min
    Bit rate : 1 631 kb/s
    Width : 720 pixels
    Height : 384 pixels
    Display aspect ratio : 1.85: 1
    Frame rate : 23.976 (24000/1001) FPS
    Color space : YUV
    Chroma subsampling : 4: 2: 0
    Bit depth : 8 bits
    Scan type : Progressive
    Compression mode : Lossy
    Bits/(Pixel*Frame) : 0.246
    Stream size : 1.30 GiB (89%)
    Writing library : XviD 1.2.1 (UTC 2008-12-04)
    Audio
    ID : 1
    Format : AC-3
    Format/Info : Audio Coding 3
    Format settings, Endianness : Big
    Codec ID : 2000
    Duration : 1 h 53 min
    Bit rate mode : Constant
    Bit rate : 192 kb/s
    Channel(s) : 2 channels
    Channel positions : Front: L R
    Sampling rate : 48.0 kHz
    Frame rate : 31.250 FPS (1536 SPF)
    Bit depth : 16 bits
    Compression mode : Lossy
    Stream size : 156 MiB (10%)
    Alignment : Split accross interleaves
    Interleave, duration : 42 ms (1.00 video frame)
    Interleave, preload duration : 500 ms
    Service kind : Complete Main

    Скриншоты для ознакомления



    Все одноименные релизы в Клубе
    Время раздачи: с 09: 00 до 22: 00 до пяти скачавших (до появления первых 3-5 скачавших)

    Сеть/Geumool (2016) WEB-DLRip [MVO] [AD]
    загрузка...
    Рейтинг →
     (голосов: 1, оценка 3/5, голосовать можно 1 раз )

    Другие торренты по теме:

  • Сеть / Geumool (2016) WEB-DLRip [H.264 / 720p-LQ] [MVO] [AD]


    • Комментарии (0):

      Информация

      Информация

        Посетители, находящиеся в группе Гости, не могут оставлять комментарии в данной новости.

        ↓ Меню




        ↓ Опрос

        Вы добавили сайт в закладки?
        Да
        Нет


        Top 10 за месяц (Другое)