.
Авторизация | Регистрация
Хочешь лучшие торренты? Добавь свой email!
Добавить

Торрент скачать бесплатно

» » 31-й км 2 / Тридцать первый километр 2 / Km 31-2 (2016) WEB-DL [H.264 / 720p-LQ] [MVO] [AD] торрент скачать бесплатно




    31-й км 2 / Тридцать первый километр 2 / Km 31-2 (2016) WEB-DL [H.264 / 720p-LQ] [MVO] [AD] торрент скачать бесплатно

    Опубликовал: Админ | Дата: 21-10-2017, 18:14 | Просмотров: 0

    Производство: Мексика
    Жанр: Ужасы, Триллер
    Режиссер: Ригоберто Кастаньеда
    Продюсер: Алексис Фридман, Билл Ровзар, Фернандо Ровзар

    Актеры
    Карлос Арагон, Маурицио Гарсия Лозаньо, Адрия Кольядо, Вероника Мерчант

    Описание

    Пока в американской глубинке буйствует Пеннивайз, темные силы не дремлют и в Мехико, спустя 7 лет после случая на Тридцать Первом Километре, детектив Угальде вновь сталкивается с таинственным злом, похищающим детей вблизи бетонных каналов рек.

    Возраст: 18+ (зрителям, достигшим 18 лет. запрещено для детей)
    Рейтинг MPAA: R (лицам до 17 лет обязательно присутствие взрослого)
    Продолжительность: 01: 46: 41
    Качество видео: WEB-DL
    Перевод: Многоголосый закадровый
    Субтитры: отсутствуют
    Реклама: присутствуют вставки рекламы
    Видео: AVC/H.264, 1280х526, ~4 500 Kbps
    Аудио: AC3, 2 ch, 384 Kbps | русский, многоголосый закадровый

    General
    Unique ID : 214810085326600906642462775229149087105 (0xA19AEAE5C811E13EB9BEE6BA2B500581)
    Complete name : D: Km31-2.2016.P.WEB-DL.72Op.mkv
    Format : Matroska
    Format version : Version 2
    File size : 3.38 GiB
    Duration : 1h 46mn
    Overall bit rate mode : Variable
    Overall bit rate : 4 536 Kbps
    Encoded date : UTC 2017-10-10 23: 10: 39
    Writing application : mkvmerge v8.3.0 (\'Over the Horizon\') 64bit
    Writing library : libebml v1.3.1 + libmatroska v1.4.2
    DURATION : 01: 46: 41.504000000
    NUMBER_OF_FRAMES : 200047
    NUMBER_OF_BYTES : 307272192
    _STATISTICS_WRITING_APP : mkvmerge v8.3.0 (\'Over the Horizon\') 64bit
    _STATISTICS_WRITING_DATE_UTC : 2017-10-10 23: 10: 39
    _STATISTICS_TAGS : BPS DURATION NUMBER_OF_FRAMES NUMBER_OF_BYTES
    Video
    ID : 1
    Format : AVC
    Format/Info : Advanced Video Codec
    Format profile : High@L4.1
    Format settings, CABAC : Yes
    Format settings, ReFrames : 12 frames
    Codec ID : V_MPEG4/ISO/AVC
    Duration : 1h 46mn
    Bit rate mode : Variable
    Bit rate : 4 061 Kbps
    Maximum bit rate : 4 500 Kbps
    Width : 1 280 pixels
    Height : 526 pixels
    Display aspect ratio : 2.40: 1
    Frame rate mode : Constant
    Frame rate : 23.976 fps
    Standard : Component
    Color space : YUV
    Chroma subsampling : 4: 2: 0
    Bit depth : 8 bits
    Scan type : Progressive
    Bits/(Pixel*Frame) : 0.252
    Stream size : 3.03 GiB (90%)
    Default : Yes
    Forced : No
    Color primaries : BT.709
    Transfer characteristics : BT.709
    Matrix coefficients : BT.709
    Audio
    ID : 2
    Format : AC-3
    Format/Info : Audio Coding 3
    Mode extension : CM (complete main)
    Format settings, Endianness : Big
    Codec ID : A_AC3
    Duration : 1h 46mn
    Bit rate mode : Constant
    Bit rate : 384 Kbps
    Channel count : 2 channels
    Channel positions : Front: L R
    Sampling rate : 48.0 KHz
    Bit depth : 16 bits
    Compression mode : Lossy
    Stream size : 293 MiB (8%)
    Default : Yes
    Forced : No

    Скриншоты для ознакомления



    Все одноименные релизы в Клубе
    Время раздачи: 24/7 (круглосуточно) (до появления первых 3-5 скачавших)

    31-й км 2/ Тридцать первый километр 2/Km 31-2 (2016) WEB-DL [H.264/720p-LQ] [MVO] [AD]
    загрузка...
    Рейтинг →
     (голосов: 1, оценка 5/5, голосовать можно 1 раз )

    Другие торренты по теме:

  • Тайна королевы Анны или Мушкетеры тридцать лет спустя (1993) DVDRip [H.264] скачать через торрент бесплатно
  • Борис Ласкин | Тридцать три рассказа (1969) [DJVU] скачать через торрент бесплатно
  • Елена Малиновская | Тридцать три несчастья и немного везения (2016) [FB2]
  • Ху Цяо-му | Тридцать лет Коммунистической партии Китая (1952) [DJVU]
  • Александр Тамоников | Тридцать сребреников в боекомплекте (2016) [FB2]
  • Роман Смеклоф | Тридцать один (2016) [FB2]
  • Игорь Можейко | Семь и тридцать семь чудес света. От Эллады до Китая (2015) [MP3]
  • Дана Саскинд и др. | Тридцать миллионов слов. Развиваем мозг малыша, просто беседуя с ним (2016) [EPUB]


    • Комментарии (0):

      Информация

      Информация

        Посетители, находящиеся в группе Гости, не могут оставлять комментарии в данной новости.

        ↓ Меню




        ↓ Опрос

        Вы добавили сайт в закладки?
        Да
        Нет


        Top 10 за месяц (Другое)