.
Авторизация | Регистрация
Хочешь лучшие торренты? Добавь свой email!
Добавить

Торрент скачать бесплатно

» » После бури / Umi yori mo mada fukaku (2016) HDRip [MVO] [AD] торрент скачать бесплатно




    После бури / Umi yori mo mada fukaku (2016) HDRip [MVO] [AD] торрент скачать бесплатно

    Опубликовал: Админ | Дата: 21-10-2017, 18:14 | Просмотров: 0

    Производство: Япония/Aoi Promotion, Bandai Visual Co. Ltd., Fuji Television Network Inc.
    Жанр: Драма
    Режиссер: Хирокадзу Корээда

    Актеры
    Хироси Абэ, Ёко Маки, Сатоми Кобаяси, Рири Фрэнки, Сосукэ Икэмацу, Юри Накамура, Кадзуя Такахаси, Юкиёси Одзава, Таиё Ёсидзава

    Описание

    Когда-то Рёта был известным писателем, но судьба сыграла с ним злую шутку — сейчас он незаметный частный сыщик, распутывающий мелкие будничные дела. Он многое потерял: похоронил отца, расстался с женой, забравшей при разводе сына. Но если его пожилая мать и красавица-бывшая как-то справились с этими трагедиями и живут дальше, то Рёта словно застрял в прошлом. Всё немногое, что он зарабатывает сыском, Рёта проигрывает, так что ему нечем даже платить алименты, не говоря уже о том, чтобы быть настоящим отцом для подрастающего сына-школьника. Однако, одна дождливая ночь может в корне изменить всю жизнь.

    Продолжительность: 01: 58: 05
    Качество видео: HDRip
    Перевод: Многоголосый закадровый, любительский (GreenРай Studio)
    Субтитры: отсутствуют
    Реклама: присутствуют аудио и видео вставки рекламы
    Видео: Xvid, 720x384, ~1456 Kbps
    Аудио: AC3, 2 ch, 192 Kbps

    General
    Complete name : /media/win/TORRENT/UPLOAD TORRENTS/After.the.Storm.2016.P.HDRip.1400MB.avi
    Format : AVI
    Format/Info : Audio Video Interleave
    File size : 1.37 GiB
    Duration : 1 h 58 min
    Overall bit rate : 1 657 kb/s
    Writing application : VirtualDubMod 1.5.10.2 (build 2540/release)
    Writing library : VirtualDubMod build 2540/release
    Video
    ID : 0
    Format : MPEG-4 Visual
    Format profile : Advanced Simple@L5
    Format settings : BVOP2
    Format settings, BVOP : 2
    Format settings, QPel : No
    Format settings, GMC : No warppoints
    Format settings, Matrix : Default (MPEG)
    Codec ID : XVID
    Codec ID/Hint : XviD
    Duration : 1 h 58 min
    Bit rate : 1 456 kb/s
    Width : 720 pixels
    Height : 384 pixels
    Display aspect ratio : 1.85: 1
    Frame rate : 23.976 (24000/1001) FPS
    Color space : YUV
    Chroma subsampling : 4: 2: 0
    Bit depth : 8 bits
    Scan type : Progressive
    Compression mode : Lossy
    Bits/(Pixel*Frame) : 0.220
    Stream size : 1.20 GiB (88%)
    Writing library : XviD 1.2.1 (UTC 2008-12-04)
    Audio
    ID : 1
    Format : AC-3
    Format/Info : Audio Coding 3
    Format settings, Endianness : Big
    Codec ID : 2000
    Duration : 1 h 58 min
    Bit rate mode : Constant
    Bit rate : 192 kb/s
    Channel(s) : 2 channels
    Channel positions : Front: L R
    Sampling rate : 48.0 kHz
    Frame rate : 31.250 FPS (1536 SPF)
    Bit depth : 16 bits
    Compression mode : Lossy
    Stream size : 162 MiB (12%)
    Alignment : Split accross interleaves
    Interleave, duration : 42 ms (1.00 video frame)
    Interleave, preload duration : 500 ms
    Service kind : Complete Main


    После бури/Umi yori mo mada fukaku (2016) HDRip [MVO] [AD]
    загрузка...
    Рейтинг →
     (голосов: 1, оценка 5/5, голосовать можно 1 раз )

    Другие торренты по теме:

  • Н. Печерская (сост.) | Богословие после Освенцима и его связь с богословием после ГУЛАГа: следствия и выводы (1999) [FB2, EPUB, MOBI]
  • Обитель зла 4: Жизнь после смерти / Resident Evil: Afterlife (2010) BDRemux [1080p]
  • Обитель зла 4: Жизнь после смерти / Resident Evil: Afterlife (2010) HDRip [AVO]
  • С. Платонов | После коммунизма. Книга, не предназначенная для печати (1990) [DJVU] скачать через торрент бесплатно
  • Tomandandy - Обитель зла: Жизнь после смерти / Resident Evil: Afterlife 3D (Music From The Motion Picture) (2010) (Deluxe Digital Edition) [MP3|320 кб / с]<Soundtrack>
  • Своими глазами. Как изменится Украина после выборов (2014.10.26) SATRip скачать через торрент бесплатно
  • Своими глазами. Как изменится Украина после выборов (2014.10.26) SATRip скачать через торрент бесплатно
  • Знать будущее. Жизнь после Ванги. История 2. Кукушка (2014.11.10) SATRip скачать через торрент бесплатно


    • Комментарии (0):

      Информация

      Информация

        Посетители, находящиеся в группе Гости, не могут оставлять комментарии в данной новости.

        ↓ Меню




        ↓ Опрос

        Вы добавили сайт в закладки?
        Да
        Нет


        Top 10 за месяц (Другое)