.
Авторизация | Регистрация
Хочешь лучшие торренты? Добавь свой email!
Добавить

Торрент скачать бесплатно

» » Холлеры / The Hollars (2016) BDRip [H.264 / 1080р] [MVO] [AD] торрент скачать бесплатно




    Холлеры / The Hollars (2016) BDRip [H.264 / 1080р] [MVO] [AD] торрент скачать бесплатно

    Опубликовал: Админ | Дата: 21-10-2017, 18:14 | Просмотров: 0

    Производство: США
    Жанр: Драма, мелодрама, комедия
    Режиссер: Джон Красински

    Актеры
    Марго Мартиндейл, Шарлто Копли, Ричард Дженкинс, Джон Красински, Анна Кендрик, Рэндолл Парк, Эшли Дайк, Чарли Дэй, Диди Костин, Джош Гробан

    Описание

    Фильм рассказывает о нью-йоркском художнике Джоне Холлере. Вместе со своей беременной девушкой он возвращается в родной город в американской глубинке накануне серьёзной операции у матери. Там он вновь сталкивается с сумасшедшей жизнью своего семейства, из-за чего он некогда покинул этот город, а также с бывшими одноклассниками и бывшей подружкой…

    Рейтинг MPAA: PG-13 (детям до 13 лет просмотр нежелателен)
    Продолжительность: 01: 29: 53
    Качество видео: BDRip
    Перевод: Любительский многоголосый (MUZOBOZ)
    Субтитры: Отсутствуют
    Реклама: Присутствуют вставки видео, голосовой и текстовой рекламы!
    Видео: AVC, 1920x1040 (16: 9), 23.976 fps, 10.2 Mbps (0.212 bit/pixel)
    Аудио: AC-3, 48.0 KHz, 2 ch, 448 Kbps, CBR

    Общее
    Уникальный идентификатор : 202051110775934185655699139777043213021 (0x9801A0E25CA0E3FBBD88A534B37DAADD)
    Полное имя : D: NNMХоллерыThe Hollars 2016 BDRip 1080p.mkv
    Формат : Matroska
    Версия формата : Version 2
    Размер файла : 6, 79 Гбайт
    Продолжительность : 1 ч. 29 м.
    Режим общего битрейта : Переменный
    Общий поток : 10, 8 Мбит/сек
    Дата кодирования : UTC 2017-10-06 16: 00: 37
    Программа кодирования : mkvmerge v8.3.0 (\'Over the Horizon\') 64bit
    Библиотека кодирования : libebml v1.3.1 + libmatroska v1.4.2
    Видео
    Идентификатор : 2
    Формат : AVC
    Формат/Информация : Advanced Video Codec
    Профиль формата : High@L4.1
    Параметр CABAC формата : Да
    Параметр ReFrames формата : 4 кадра
    Идентификатор кодека : V_MPEG4/ISO/AVC
    Продолжительность : 1 ч. 29 м.
    Вид битрейта : Переменный
    Битрейт : 10, 4 Мбит/сек
    Максимальный битрейт : 12, 0 Мбит/сек
    Ширина : 1920 пикселей
    Высота : 1040 пикселей
    Соотношение сторон : 1, 85: 1
    Режим частоты кадров : Постоянный
    Частота кадров : 23, 976 (24000/1001) кадра/сек
    Стандарт вещания : Component
    Цветовое пространство : YUV
    Субдискретизация насыщенности : 4: 2: 0
    Битовая глубина : 8 бит
    Тип развёртки : Прогрессивная
    Бит/(Пиксели*Кадры) : 0.217
    Размер потока : 6, 51 Гбайт (96%)
    Default : Да
    Forced : Нет
    Аудио
    Идентификатор : 1
    Формат : AC-3
    Формат/Информация : Audio Coding 3
    Расширение режима : CM (complete main)
    Параметр Endianness формата : Big
    Идентификатор кодека : A_AC3
    Продолжительность : 1 ч. 29 м.
    Вид битрейта : Постоянный
    Битрейт : 448 Кбит/сек
    Каналы : 2 канала
    Расположение каналов : Front: L R
    Частота : 48, 0 КГц
    Частота кадров : 31, 250 кадров/сек (1536 spf)
    Битовая глубина : 16 бит
    Метод сжатия : С потерями
    Размер потока : 288 Мбайт (4%)
    Default : Да
    Forced : Нет

    Скриншоты для ознакомления



    Все одноименные релизы в Клубе
    Время раздачи: Круглосуточно до 10 скачавших

    Холлеры/The Hollars (2016) BDRip [H.264/1080р] [MVO] [AD]
    загрузка...
    Рейтинг →
     (голосов: 1, оценка 3/5, голосовать можно 1 раз )

    Другие торренты по теме:

  • Холлеры / The Hollars (2016) BDRip [H.264 / 720p] [EN / En, Ch, Jap Sub]
  • Холлеры / The Hollars (2016) BDRip [H.264 / 1080p] [EN / En, Ch, Jap Sub]
  • Холлеры / The Hollars (2016) BDRemux [H.264 / 1080p] [EN / En, Ch, Jap Sub]


    • Комментарии (0):

      Информация

      Информация

        Посетители, находящиеся в группе Гости, не могут оставлять комментарии в данной новости.

        ↓ Меню




        ↓ Опрос

        Вы добавили сайт в закладки?
        Да
        Нет


        Top 10 за месяц (Другое)