.
Авторизация | Регистрация
Хочешь лучшие торренты? Добавь свой email!
Добавить

Торрент скачать бесплатно

» » Особенности национальной рыбалки (1998) DVD5 [hand made реставрация] торрент скачать бесплатно



    Особенности национальной рыбалки (1998) DVD5 [hand made реставрация] торрент скачать бесплатно

    Опубликовал: Админ | Дата: 19-10-2017, 05:00 | Просмотров: 0

    Производство: Россия, Кинокомпания CTB, Millennium Films, Никола Фильм
    Жанр: Комедия
    Режиссер: Александр Рогожкин

    Актеры
    Алексей Булдаков, Алексей Севастьянов, Андрей Краско, Василий Домрачев, Виктор Бычков, Виллэ Хаапасало, Семен Стругачев, Сергей Гусинский, Сергей Русскин

    Описание

    Компания старых приятелей, достойно выдержавших испытание национальной охотой, вновь собирается вместе — на сей раз для того, чтобы культурно отдохнуть под видом рыбной ловли.

    Возраст: 16+ (зрителям, достигшим 16 лет)
    Релиз от: smithland
    Продолжительность: 01: 34: 45
    Качество видео: DVD5 Реставрация hand made
    Видео: MPEG-2, 720x480@853x480, ~5613 kb/s
    Аудио: AC3, 2 ch, 192 kbps

    General
    Complete name : Особенности национальной рыбалки
    Format : MPEG-PS
    File size : 3.92 GiB
    Duration : 1 h 34 min
    Overall bit rate mode : Variable
    Overall bit rate : 5 923 kb/s
    Video
    ID : 224 (0xE0)
    Format : MPEG Video
    Format version : Version 2
    Format profile : Main@Main
    Format settings, BVOP : Yes
    Format settings, Matrix : Default
    Format settings, GOP : M=3, N=12
    Duration : 1 h 34 min
    Bit rate mode : Variable
    Bit rate : 5 613 kb/s
    Maximum bit rate : 9 200 kb/s
    Width : 720 pixels
    Height : 480 pixels
    Display aspect ratio : 16: 9
    Frame rate : 29.970 (30000/1001) FPS
    Standard : Component
    Color space : YUV
    Chroma subsampling : 4: 2: 0
    Bit depth : 8 bits
    Scan type : Progressive
    Compression mode : Lossy
    Bits/(Pixel*Frame) : 0.542
    Time code of first frame : 00: 00: 00: 00
    Time code source : Group of pictures t_head
    GOP, Open/Closed : Closed
    Stream size : 3.71 GiB (95%)
    Color primaries : BT.601 NTSC
    Transfer characteristics : BT.601
    Matrix coefficients : BT.601
    Audio
    ID : 189 (0xBD)-128 (0x80)
    Format : AC-3
    Format/Info : Audio Coding 3
    Mode extension : CM (complete main)
    Format settings, Endianness : Big
    Muxing mode : DVD-Video
    Duration : 1 h 34 min
    Bit rate mode : Constant
    Bit rate : 192 kb/s
    Channel(s) : 2 channels
    Channel positions : Front: L R
    Sampling rate : 48.0 kHz
    Frame rate : 31.250 FPS (1536 spf)
    Bit depth : 16 bits
    Compression mode : Lossy
    Delay relative to video : -34 ms
    Stream size : 130 MiB (3%)

    Прямая ссылка скачивания через uTorrent


    Особенности национальной рыбалки (1998) DVD5 [hand made реставрация]
    загрузка...
    Рейтинг →
     (голосов: 1, оценка 4/5, голосовать можно 1 раз )

    Другие торренты по теме:

  • Кай Метов - Особенности национальной маршрутки (2014) [FLAC (image+.cue)|Lossless]<Pop, Soundtrack>
  • Кай Метов - Особенности национальной маршрутки (2014) [MP3|320 кб / с]<Pop, Soundtrack>
  • Особенности национальной рыбалки (1998) DVDRip [H.264]
  • Особенности национальной охоты (1995) DVDRip
  • Особенности национальной маршрутки (2013) WEB-DL [H.264 / 1080p-LQ] (серии 1 из 2) (обновляемая)


    • Комментарии (0):

      Информация

      Информация

        Посетители, находящиеся в группе Гости, не могут оставлять комментарии в данной новости.

        ↓ Меню




        ↓ Опрос

        Вы добавили сайт в закладки?
        Да
        Нет


        Top 10 за месяц (Другое)