.
Авторизация | Регистрация
Хочешь лучшие торренты? Добавь свой email!
Добавить

Торрент скачать бесплатно

» » Планета обезьян: Война / War for the Planet of the Apes (2017) BDRip [H.264 / 1080p] [hand made 16:9] торрент скачать бесплатно




    Планета обезьян: Война / War for the Planet of the Apes (2017) BDRip [H.264 / 1080p] [hand made 16:9] торрент скачать бесплатно

    Опубликовал: Админ | Дата: 18-10-2017, 05:00 | Просмотров: 0

    Производство: США, Канада, Новая Зеландия, Chernin Entertainment, River Road Entertainment, TSG Entertainment
    Жанр: Фантастика, боевик, триллер, драма, приключения
    Режиссер: Мэтт Ривз
    Продюсер: Марк Бомбэк, Питер Чернин, Дилан Кларк

    Актеры
    Энди Серкис, Вуди Харрельсон, Стив Зан, Карин Коновал, Амайя Миллер, Терри Нотари, Тай Олссон, Майкл Адамуэйт, Тоби Кеббелл, Гэбриел Чаварриа

    Описание

    Армию генетически модифицированных обезьян ожидает новый вызов: они вынуждены вступить в смертельную схватку с армией людей под руководством безжалостного полковника. После невообразимых потерь среди своих воинов вождь обезьян Цезарь начинает личную борьбу с темными инстинктами и собирается отомстить за весь свой вид. В конце концов он и полковник должны будут сойтись в эпической битве, которая решит, кто теперь будет править на Земле — люди или обезьяны.

    Возраст: 16+ (зрителям, достигшим 16 лет)
    Рейтинг MPAA: PG-13 (детям до 13 лет просмотр нежелателен)
    Премьера (мир): 11 июля 2017
    Премьера (РФ): 13 июля 2017, Двадцатый Век Фокс СНГ

    Продолжительность: 02: 20: 09
    Качество видео: BDRip
    Перевод: Дублированный (BD EUR)
    Субтитры: русские (полные, форс.), украинские (полные, форс.), английские (полные, форс.)
    Видео: AVC/H.264, 1920x1080, ~10 Mbps
    Аудио #1: AC3, 6 ch, 640 Kbps- Русский (Дубляж)
    Аудио #2: AC3, 2 ch, 192 Kbps - Украинский (Дубляж)
    Аудио #3: DTS, 6 ch, 768 Kbps - Английский

    Format : Matroska
    Format version : Version 4/Version 2
    File size : 11.4 GiB
    Duration : 2h 20mn
    Overall bit rate : 11.6 Mbps
    Movie name : Планета обезьян: Война.2017
    Encoded date : UTC 2017-10-17 13: 41: 06
    Writing application : mkvmerge v9.8.0 (\'Kuglblids\') 64bit
    Writing library : libebml v1.3.4 + libmatroska v1.4.5
    Video
    ID : 1
    Format : AVC
    Format/Info : Advanced Video Codec
    Format profile : High@L4.1
    Format settings, CABAC : Yes
    Format settings, ReFrames : 4 frames
    Codec ID : V_MPEG4/ISO/AVC
    Duration : 2h 20mn
    Bit rate : 10 000 Kbps
    Width : 1 920 pixels
    Height : 1 080 pixels
    Display aspect ratio : 16: 9
    Frame rate mode : Constant
    Frame rate : 23.976 fps
    Color space : YUV
    Chroma subsampling : 4: 2: 0
    Bit depth : 8 bits
    Scan type : Progressive
    Bits/(Pixel*Frame) : 0.201
    Stream size : 9.56 GiB (84%)
    Writing library : x264 core 152 r2851M ba24899
    Encoding settings : cabac=1/ref=4/deblock=1: -3: -3/analyse=0x3: 0x113/me=umh/subme=10/psy=1/psy_rd=1.05: 0.10/mixed_ref=1/me_range=24/chroma_me=1/trellis=2/8x8dct=1/cqm=0/deadzone=21, 11/fast_pskip=0/chroma_qp_offset=-3/threads=5/lookahead_threads=1/sliced_threads=0/nr=0/decimate=1/interlaced=0/bluray_compat=0/constrained_intra=0/bframes=7/b_pyramid=2/b_adapt=2/b_bias=0/direct=1/weightb=1/open_gop=0/weightp=2/keyint=230/keyint_min=23/scenecut=40/intra_refresh=0/rc=2pass/mbtree=0/bitrate=10000/ratetol=1.0/qcomp=0.70/qpmin=3/qpmax=69/qpstep=4/cplxblur=20.0/qblur=0.5/ip_ratio=1.40/pb_ratio=1.30/aq=2: 1.00
    Default : Yes
    Forced : No
    Audio #1
    ID : 2
    Format : AC-3
    Format/Info : Audio Coding 3
    Mode extension : CM (complete main)
    Format settings, Endianness : Big
    Codec ID : A_AC3
    Duration : 2h 20mn
    Bit rate mode : Constant
    Bit rate : 640 Kbps
    Channel(s) : 6 channels
    Channel positions : Front: L C R, Side: L R, LFE
    Sampling rate : 48.0 KHz
    Bit depth : 16 bits
    Compression mode : Lossy
    Stream size : 642 MiB (6%)
    Language : Russian
    Default : Yes
    Forced : No
    Audio #2
    ID : 3
    Format : AC-3
    Format/Info : Audio Coding 3
    Format profile : Dolby Digital
    Mode extension : CM (complete main)
    Format settings, Endianness : Big
    Codec ID : A_AC3
    Duration : 2h 20mn
    Bit rate mode : Constant
    Bit rate : 192 Kbps
    Channel(s) : 2 channels
    Channel positions : Front: L R
    Sampling rate : 48.0 KHz
    Bit depth : 16 bits
    Compression mode : Lossy
    Stream size : 192 MiB (2%)
    Language : Ukrainian
    Default : No
    Forced : No
    Audio #3
    ID : 4
    Format : DTS
    Format/Info : Digital Theater Systems
    Mode : 16
    Format settings, Endianness : Big
    Codec ID : A_DTS
    Duration : 2h 20mn
    Bit rate mode : Constant
    Bit rate : 768 Kbps
    Channel(s) : 6 channels
    Channel positions : Front: L C R, Side: L R, LFE
    Sampling rate : 48.0 KHz
    Bit depth : 16 bits
    Compression mode : Lossy
    Stream size : 770 MiB (7%)
    Language : English
    Default : No
    Forced : No
    Text #1
    ID : 5
    Format : UTF-8
    Codec ID : S_TEXT/UTF8
    Codec ID/Info : UTF-8 Plain Text
    Title : Forced
    Language : Russian
    Default : Yes
    Forced : No
    Text #2
    ID : 6
    Format : UTF-8
    Codec ID : S_TEXT/UTF8
    Codec ID/Info : UTF-8 Plain Text
    Title : Full
    Language : Russian
    Default : No
    Forced : No
    Text #3
    ID : 7
    Format : UTF-8
    Codec ID : S_TEXT/UTF8
    Codec ID/Info : UTF-8 Plain Text
    Title : Forced
    Language : Ukrainian
    Default : No
    Forced : No
    Text #4
    ID : 8
    Format : UTF-8
    Codec ID : S_TEXT/UTF8
    Codec ID/Info : UTF-8 Plain Text
    Title : Full
    Language : Ukrainian
    Default : No
    Forced : No
    Text #5
    ID : 9
    Format : UTF-8
    Codec ID : S_TEXT/UTF8
    Codec ID/Info : UTF-8 Plain Text
    Title : Forced
    Language : English
    Default : No
    Forced : No
    Text #6
    ID : 10
    Format : UTF-8
    Codec ID : S_TEXT/UTF8
    Codec ID/Info : UTF-8 Plain Text
    Title : Full
    Language : English
    Default : No
    Forced : No

    Скриншоты для ознакомления



    Все одноименные релизы в Клубе
    Время раздачи: 24/7 (до появления первых 3-5 скачавших)

    Планета обезьян: Война/War for the Planet of the Apes (2017) BDRip [H.264/1080p] [hand made 16:9]
    загрузка...
    Рейтинг →
     (голосов: 1, оценка 5/5, голосовать можно 1 раз )

    Другие торренты по теме:

  • Планета обезьян. Куда исчезают умные дети (Планета мавп. Куди зникають розумні діти) (2014) [MP4|1280x720] <HDRip H.264> скачать через торрент бесплатно
  • Планета обезьян: Революция / Dawn of the Planet of the Apes (2014) TS
  • Планета обезьян: Революция / Dawn of the Planet of the Apes (2014) TS
  • Планета обезьян: Революция / Dawn of the Planet of the Apes (2014) TS
  • Планета обезьян: Революция / Dawn of the Planet of the Apes (2014) TS [H.264 / 720p-LQ]
  • Планета обезьян: Революция / Dawn of the Planet of the Apes (2014) WEB-DLRip [звук с TS]
  • Планета обезьян: Революция / Dawn of the Planet of the Apes (2014) WEB-DLRip [H.264] [Line] скачать через торрент бесплатно
  • Планета обезьян: Революция / Dawn of the Planet of the Apes (2014) WEB-DL [H.264 / 720p-LQ] [Line] скачать через торрент бесплатно


    • Комментарии (0):

      Информация

      Информация

        Посетители, находящиеся в группе Гости, не могут оставлять комментарии в данной новости.

        ↓ Меню




        ↓ Опрос

        Вы добавили сайт в закладки?
        Да
        Нет


        Top 10 за месяц (Другое)