.
Авторизация | Регистрация
Хочешь лучшие торренты? Добавь свой email!
Добавить

Торрент скачать бесплатно

» » Мстители / The Avengers (2012) HDRip [H.264] [Hand Made Extended Cut] торрент скачать бесплатно




    Мстители / The Avengers (2012) HDRip [H.264] [Hand Made Extended Cut] торрент скачать бесплатно

    Опубликовал: Админ | Дата: 13-10-2017, 05:00 | Просмотров: 0

    Производство: США/Marvel Studios Inc., Paramount Pictures
    Жанр: Боевик, Приключения, Фантастика, Фэнтези
    Режиссер: Джосс Уидон

    Актеры
    Роберт Дауни мл., Крис Эванс, Марк Руффало, Крис Хемсворт, Скарлетт Йоханссон, Джереми Реннер, Том Хиддлстон, Сэмюэл Л. Джексон, Кларк Грегг, Коби Смолдерс

    Описание

    Локи, сводный брат Тора, возвращается, и в этот раз он не один. Земля на грани порабощения, и только лучшие из лучших могут спасти человечество. Ник Фьюри, глава международной организации Щ. И. Т., собирает выдающихся поборников справедливости и добра, чтобы отразить атаку. Под предводительством Капитана Америки Железный Человек, Тор, Невероятный Халк, Соколиный глаз и Чёрная Вдова вступают в войну с захватчиком.

    Возраст: 12+ (зрителям, достигшим 12 лет)
    Рейтинг MPAA: PG-13 (детям до 13 лет просмотр нежелателен)
    Релиз от: MAG3131
    Продолжительность: 02: 44: 45
    Качество видео: HDRip
    Перевод: Дублированный с вставками любительского псевдо-дубляжа \'\'Dars Group\'\'
    Субтитры: Отсутствуют
    Видео: AVC/H.264, 720x408, ~1586 kbps, 29, 970 fps
    Аудио: AC3, 2 ch, 192 kbps
    Данная версия фильма на Blu-Ray не выходила как расширенная версия. Поэтому это Неофициальная (фанатная) версия. Добавленные сцены отличаются по качеству видео от самого фильма.

    Общее
    Уникальный идентификатор : 254456782205907592377422657571585152897 (0xBF6E97F8CF2AFEB18E73F8E5773A5781)
    Полное имя : Мстители - 01 (Расширенная версия) (The Avengers - 01) (Extended Cut).mkv
    Формат : Matroska
    Версия формата : Version 2
    Размер файла : 2, 05 Гбайт
    Продолжительность : 2 ч. 44 м.
    Общий поток : 1779 Кбит/сек
    Дата кодирования : UTC 2017-10-12 00: 11: 23
    Программа кодирования : mkvmerge v16.0.0 (\'Protest\') 64-bit
    Библиотека кодирования : libebml v1.3.5 + libmatroska v1.4.8
    Attachments : Лог кодирования.log
    Видео
    Идентификатор : 1
    Формат : AVC
    Формат/Информация : Advanced Video Codec
    Профиль формата : High@L4.1
    Настройки формата : CABAC/12 Ref Frames
    Параметр CABAC формата : Да
    Параметр RefFrames формата : 12 кадров
    Идентификатор кодека : V_MPEG4/ISO/AVC
    Продолжительность : 2 ч. 44 м.
    Битрейт : 1586 Кбит/сек
    Ширина : 720 пикселей
    Высота : 408 пикселей
    Соотношение сторон : 16: 9
    Режим частоты кадров : Постоянный
    Частота кадров : 29, 970 (29970/1000) кадров/сек
    Цветовое пространство : YUV
    Субдискретизация насыщенности : 4: 2: 0
    Битовая глубина : 8 бит
    Тип развёртки : Прогрессивная
    Бит/(Пиксели*Кадры) : 0.180
    Размер потока : 1, 79 Гбайт (87%)
    Заголовок : Мстители - 01 (Расширенная версия) (The Avengers - 01) (Extended Cut)
    Библиотека кодирования : x264 core 152 r2851 ba24899
    Настройки программы : cabac=1/ref=12/deblock=1: -1: -1/analyse=0x3: 0x133/me=umh/subme=11/psy=1/psy_rd=1.00: 0.15/mixed_ref=1/me_range=64/chroma_me=1/trellis=2/8x8dct=1/cqm=0/deadzone=21, 11/fast_pskip=0/chroma_qp_offset=-3/threads=6/lookahead_threads=1/sliced_threads=0/nr=0/decimate=0/interlaced=0/bluray_compat=0/constrained_intra=0/bframes=16/b_pyramid=2/b_adapt=2/b_bias=0/direct=3/weightb=1/open_gop=0/weightp=2/keyint=300/keyint_min=29/scenecut=40/intra_refresh=0/rc_lookahead=60/rc=2pass/mbtree=0/bitrate=1586/ratetol=1.0/qcomp=0.60/qpmin=0/qpmax=69/qpstep=4/cplxblur=20.0/qblur=0.5/vbv_maxrate=50000/vbv_bufsize=62500/nal_hrd=none/filler=0/ip_ratio=1.40/pb_ratio=1.30/aq=1: 1.00
    Язык : English
    Default : Да
    Forced : Нет
    Аудио
    Идентификатор : 2
    Формат : AC-3
    Формат/Информация : Audio Coding 3
    Параметр Endianness формата : Big
    Идентификатор кодека : A_AC3
    Продолжительность : 2 ч. 44 м.
    Вид битрейта : Постоянный
    Битрейт : 192 Кбит/сек
    Каналы : 2 канала
    Расположение каналов : Front: L R
    Частота : 48, 0 КГц
    Частота кадров : 31, 250 кадров/сек (1536 SPF)
    Битовая глубина : 16 бит
    Метод сжатия : С потерями
    Размер потока : 226 Мбайт (11%)
    Заголовок : Дублированный \'\'Blu-ray CEE\'\' с вставками любительского псевдо-дубляжа \'\'Dars Group\'\' (AC-3, Постоянный, 192 Кбит/сек, 2 канала, 48, 0 КГц, 16 бит)
    Язык : Russian
    ServiceKind/String : Complete Main
    Default : Да
    Forced : Нет

    Скриншоты для ознакомления



    Все одноименные релизы в Клубе
    Время раздачи: 24/7 до первых 10 скачавших, потом ухожу с раздачи

    Мстители/The Avengers (2012) HDRip [H.264] [Hand Made Extended Cut]
    загрузка...
    Рейтинг →
     (голосов: 1, оценка 4/5, голосовать можно 1 раз )

    Другие торренты по теме:

  • Команда «Мстители» (Сезон 1, Серия: 1-26 из 26) / Мстители, общий сбор / Marvels Avengers Assemble (2013) WEB-DLRip скачать через торрент бесплатно
  • Команда «Мстители» (Сезон 2, Серия: 1-9 из ) / Мстители, общий сбор / Marvels Avengers Assemble (2014) WEB-DLRip (Обновляемая) скачать через торрент бесплатно
  • Команда «Мстители» (Сезон 1, Серия: 1-26 из 26) / Мстители, общий сбор / Marvels Avengers Assemble (2013) WEB-DL [1080p] скачать через торрент бесплатно
  • Команда «Мстители» / Мстители, общий сбор / Marvels Avengers Assemble (2014) WEB-DL [H.264 / 1080p] (Сезон 2, Серия: 1-17 из 26) [Обновляемая] скачать через торрент бесплатно
  • Alan Silvestri - Мстители / The Avengers (Complete Motion Picture Score) (2012) [MP3|320 кб / с]<Soundtrack>
  • Мстители / The Avengers (1998) HDRip [576p] iPad
  • Мстители: Эра Альтрона / Avengers: Age of Ultron (2015) WEBRip [1080p] [Трейлер] [RUS] скачать через торрент бесплатно
  • Мстители: Эра Альтрона / The Avengers: Age of Ultron (2015) DCPRip [2K] [Hi10P] [Трейлер]


    • Комментарии (0):

      Информация

      Информация

        Посетители, находящиеся в группе Гости, не могут оставлять комментарии в данной новости.

        ↓ Меню




        ↓ Опрос

        Вы добавили сайт в закладки?
        Да
        Нет


        Top 10 за месяц (Другое)