.
Авторизация | Регистрация
Хочешь лучшие торренты? Добавь свой email!
Добавить

Торрент скачать бесплатно

» » Сборник клипов - Turkish videoclips от ALEXnROCK (2017) WEBRip (H.264 / 720p-LQ) (часть 1) торрент скачать бесплатно




    Сборник клипов - Turkish videoclips от ALEXnROCK (2017) WEBRip (H.264 / 720p-LQ) (часть 1) торрент скачать бесплатно

    Опубликовал: Админ | Дата: 9-10-2017, 05:00 | Просмотров: 0

    Название: Turkish videoclips from ALEXnROCK
    Год выхода: 2017
    Жанр: Pop

    Описание

    В сборник вошли самые лучшие хиты от турецких исполнителей, которые не только приятно смотреть, но и слушать. Сильный мужской вокал в сочетании с красивыми восточными девушками. Это 1 часть сборника. Да прибудет с нами качественная музыка! Все лучшее для вас! ALEXnROCK
    Ремастеринг видео, звук почти во всех клипах заменил на CD
    Продолжительность: 03: 43: 30
    Качество видео: DVDRip
    Видео: AVC/H.264, 1280x612-720 (16x9) 1280x864-896(4x3), 25-29fps, 3400kbps
    Аудио: 48000Hz, PCM, 2 ch, 1536kbps
    Треклист:
    000 Intro
    001 Tarkan - Op
    002 Hepsi - Kalpszsin
    003 Mustafa Sandal - Isyankar
    004 Berksan - Opuselim mi
    005 Eylem - Aman
    006 Murat Boz - Aski Bulamam Ben
    007 Ebru Polat - Olanlar Oldu
    008 Tarkan - Dudu
    009 Kenan Dogulu - Aklim karisti
    010 4 yuz - Kiz Kiza
    011 Mustafa Sandal - Tesir Altinda
    012 Hepsi - Olmaz oglan
    013 Murat Dalkilic - Bu Nasil Ask
    014 Murat Boz - Maximum
    015 Bendeniz - Kirmizibiber
    016 Gokhan Ozen - Benim icin napardin
    017 Tarkan - Bu Gece
    018 Funda - Deli Et Beni
    019 Yalin - Cumhuriyet
    020 Mustafa Sandal - Araba
    021 4 yuz - Salla
    022 Emir - Bi\\' Agla
    023 Emre Altug - Kapis kapis
    024 Gulsen - Irgalamaz Beni
    025 Burak Kut - Yasandi Bitti
    026 Tarkan - Kuzu Kuzu
    027 Emir - Tutusmayan Kalmasin
    028 Mustafa Sandal - Gel Askim
    029 Abidin - Penceremde Yagmurlar
    030 Hadise - Nerdesin Askim
    031 Serdar Ortac - Beni unut
    032 Oguz Berkay - Fidan feat. Murat Boz
    033 Ajda Pekkan - Yakar Geсerim
    034 Tarkan - Arada Bir
    035 Berksan ft.Hande Yener - Haberi Var
    036 Sinan Akcil - Hatirlasana
    037 Mustafa Sandal - Ego
    038 Yalin - Ellerine saglik
    039 Ebru Polat - Haydi Git
    040 Emir - Tornistan
    041 Murat Dalkilic - Bir Guzellik Yapsana
    042 Tarkan - Uyan
    043 Serdar Ortac - Sor
    044 Aydin Kurtoglu - Kole
    045 Hepsi - Uc Kalp
    046 Sinan Akcil - Hoppala
    047 Mustafa Sandal - All My Life
    048 Ismail YK - Sekerim
    049 Hadise - Ask Kac Beden Giyer
    050 Yasar - Hayirdir insallah
    051 Burak Kut - Ver Allah
    052 Hani Dunya Tatlisi - Ebru Polat
    053 Emre Altug - Ortam Insani
    054 Ozan - Sonmuyor Atesimiz
    055 Tarkan - Vay Anam Vay
    056 Umitsayin - Mavi geceler

    Общее
    Уникальный идентификатор : 216735662199664667144073091547619772710 (0xA30DC52AD2F4B473BCAB3EA2B715C926)
    Полное имя : Turkish clips from ALEXnROCK mkv disc 1\000 Intro ALEXnROCK.mkv
    Формат : Matroska
    Версия формата : Version 4/Version 2
    Размер файла : 32, 1 Мбайт
    Продолжительность : 56 с. 122 мс.
    Общий поток : 4800 Кбит/сек
    Дата кодирования : UTC 2017-07-29 10: 47: 50
    Программа кодирования : mkvmerge v9.8.0 (\\'Kuglblids\\') 64bit
    Библиотека кодирования : libebml v1.3.4 + libmatroska v1.4.5
    Видео
    Идентификатор : 1
    Формат : AVC
    Формат/Информация : Advanced Video Codec
    Профиль формата : High@L4
    Настройки формата : CABAC/4 Ref Frames
    Параметр CABAC формата : Да
    Параметр RefFrames формата : 4 кадра
    Идентификатор кодека : V_MPEG4/ISO/AVC
    Продолжительность : 56 с. 122 мс.
    Битрейт : 3400 Кбит/сек
    Ширина : 1280 пикселей
    Высота : 720 пикселей
    Соотношение сторон : 16: 9
    Режим частоты кадров : Постоянный
    Частота кадров : 29, 970 (29970/1000) кадров/сек
    Цветовое пространство : YUV
    Субдискретизация насыщенности : 4: 2: 0
    Битовая глубина : 8 бит
    Тип развёртки : Прогрессивная
    Бит/(Пиксели*Кадры) : 0.123
    Размер потока : 21, 8 Мбайт (68%)
    Библиотека кодирования : x264 core 146 r2538 121396c
    Настройки программы : cabac=1/ref=3/deblock=1: -1: -1/analyse=0x3: 0x113/me=hex/subme=7/psy=1/psy_rd=1.00: 0.20/mixed_ref=1/me_range=16/chroma_me=1/trellis=1/8x8dct=1/cqm=0/deadzone=21, 11/fast_pskip=1/chroma_qp_offset=-3/threads=12/lookahead_threads=2/sliced_threads=0/nr=0/decimate=0/interlaced=0/bluray_compat=0/constrained_intra=0/bframes=3/b_pyramid=2/b_adapt=1/b_bias=0/direct=3/weightb=1/open_gop=0/weightp=2/keyint=250/keyint_min=25/scenecut=40/intra_refresh=0/rc_lookahead=40/rc=2pass/mbtree=1/bitrate=3400/ratetol=1.0/qcomp=0.60/qpmin=0/qpmax=69/qpstep=4/cplxblur=20.0/qblur=0.5/vbv_maxrate=14000/vbv_bufsize=14000/nal_hrd=none/filler=0/ip_ratio=1.40/aq=1: 1.00
    Default : Да
    Forced : Нет
    Аудио
    Идентификатор : 2
    Формат : PCM
    Идентификатор кодека : A_PCM/INT/LIT
    Продолжительность : 56 с. 97 мс.
    Вид битрейта : Постоянный
    Битрейт : 1536 Кбит/сек
    Каналы : 2 канала
    Частота : 48, 0 КГц
    Частота кадров : 32, 016 кадра/сек (1499 SPF)
    Битовая глубина : 16 бит
    Размер потока : 10, 3 Мбайт (32%)
    Default : Да
    Forced : Нет
    Общее
    Уникальный идентификатор : 219012803220115545151850769429100751989 (0xA4C454E3405AE3809E512085E8EBEC75)
    Полное имя : E: \Турецкие клипы\Turkish clips from ALEXnROCK mkv disc 1\Turkish clips from ALEXnROCK mkv disc 1\001 Tarkan - Op ALEXnROCK.mkv
    Формат : Matroska
    Версия формата : Version 4/Version 2
    Размер файла : 159 Мбайт
    Продолжительность : 4 м. 30 с.
    Общий поток : 4931 Кбит/сек
    Дата кодирования : UTC 2017-07-04 13: 00: 25
    Программа кодирования : mkvmerge v9.8.0 (\\'Kuglblids\\') 64bit
    Библиотека кодирования : libebml v1.3.4 + libmatroska v1.4.5
    Видео
    Идентификатор : 1
    Формат : AVC
    Формат/Информация : Advanced Video Codec
    Профиль формата : High@L4
    Настройки формата : CABAC/4 Ref Frames
    Параметр CABAC формата : Да
    Параметр RefFrames формата : 4 кадра
    Идентификатор кодека : V_MPEG4/ISO/AVC
    Продолжительность : 4 м. 30 с.
    Битрейт : 3400 Кбит/сек
    Ширина : 1280 пикселей
    Высота : 720 пикселей
    Соотношение сторон : 16: 9
    Режим частоты кадров : Постоянный
    Частота кадров : 25, 000 кадров/сек
    Цветовое пространство : YUV
    Субдискретизация насыщенности : 4: 2: 0
    Битовая глубина : 8 бит
    Тип развёртки : Прогрессивная
    Бит/(Пиксели*Кадры) : 0.148
    Размер потока : 110 Мбайт (69%)
    Библиотека кодирования : x264 core 146 r2538 121396c
    Настройки программы : cabac=1/ref=3/deblock=1: -1: -1/analyse=0x3: 0x113/me=hex/subme=7/psy=1/psy_rd=1.00: 0.20/mixed_ref=1/me_range=16/chroma_me=1/trellis=1/8x8dct=1/cqm=0/deadzone=21, 11/fast_pskip=1/chroma_qp_offset=-3/threads=12/lookahead_threads=2/sliced_threads=0/nr=0/decimate=0/interlaced=0/bluray_compat=0/constrained_intra=0/bframes=3/b_pyramid=2/b_adapt=1/b_bias=0/direct=3/weightb=1/open_gop=0/weightp=2/keyint=250/keyint_min=25/scenecut=40/intra_refresh=0/rc_lookahead=40/rc=2pass/mbtree=1/bitrate=3400/ratetol=1.0/qcomp=0.60/qpmin=0/qpmax=69/qpstep=4/cplxblur=20.0/qblur=0.5/vbv_maxrate=14000/vbv_bufsize=14000/nal_hrd=none/filler=0/ip_ratio=1.40/aq=1: 1.00
    Default : Да
    Forced : Нет
    Аудио
    Идентификатор : 2
    Формат : PCM
    Идентификатор кодека : A_PCM/INT/LIT
    Продолжительность : 4 м. 28 с.
    Вид битрейта : Постоянный
    Битрейт : 1536 Кбит/сек
    Каналы : 2 канала
    Частота : 48, 0 КГц
    Частота кадров : 32, 003 кадра/сек (1500 SPF)
    Битовая глубина : 16 бит
    Размер потока : 49, 1 Мбайт (31%)
    Default : Да
    Forced : Нет
    Общее
    Уникальный идентификатор : 215359360738692758687735973500680989711 (0xA204B444298C55B1AD94FCCB474CEC0F)
    Полное имя : E: \Турецкие клипы\Turkish clips from ALEXnROCK mkv disc 1\Turkish clips from ALEXnROCK mkv disc 1\002 Hepsi - Kalpszsin ALEXnROCK.mkv
    Формат : Matroska
    Версия формата : Version 4/Version 2
    Размер файла : 121 Мбайт
    Продолжительность : 3 м. 25 с.
    Общий поток : 4927 Кбит/сек
    Дата кодирования : UTC 2017-07-29 13: 58: 05
    Программа кодирования : mkvmerge v9.8.0 (\\'Kuglblids\\') 64bit
    Библиотека кодирования : libebml v1.3.4 + libmatroska v1.4.5
    Видео
    Идентификатор : 1
    Формат : AVC
    Формат/Информация : Advanced Video Codec
    Профиль формата : High@L4
    Настройки формата : CABAC/4 Ref Frames
    Параметр CABAC формата : Да
    Параметр RefFrames формата : 4 кадра
    Идентификатор кодека : V_MPEG4/ISO/AVC
    Продолжительность : 3 м. 25 с.
    Битрейт : 3400 Кбит/сек
    Ширина : 1280 пикселей
    Высота : 712 пикселей
    Соотношение сторон : 16: 9
    Режим частоты кадров : Постоянный
    Частота кадров : 25, 000 кадров/сек
    Цветовое пространство : YUV
    Субдискретизация насыщенности : 4: 2: 0
    Битовая глубина : 8 бит
    Тип развёртки : Прогрессивная
    Бит/(Пиксели*Кадры) : 0.149
    Размер потока : 83, 3 Мбайт (69%)
    Библиотека кодирования : x264 core 146 r2538 121396c
    Настройки программы : cabac=1/ref=3/deblock=1: -1: -1/analyse=0x3: 0x113/me=hex/subme=7/psy=1/psy_rd=1.00: 0.20/mixed_ref=1/me_range=16/chroma_me=1/trellis=1/8x8dct=1/cqm=0/deadzone=21, 11/fast_pskip=1/chroma_qp_offset=-3/threads=12/lookahead_threads=2/sliced_threads=0/nr=0/decimate=0/interlaced=0/bluray_compat=0/constrained_intra=0/bframes=3/b_pyramid=2/b_adapt=1/b_bias=0/direct=3/weightb=1/open_gop=0/weightp=2/keyint=250/keyint_min=25/scenecut=40/intra_refresh=0/rc_lookahead=40/rc=2pass/mbtree=1/bitrate=3400/ratetol=1.0/qcomp=0.60/qpmin=0/qpmax=69/qpstep=4/cplxblur=20.0/qblur=0.5/vbv_maxrate=14000/vbv_bufsize=14000/nal_hrd=none/filler=0/ip_ratio=1.40/aq=1: 1.00
    Default : Да
    Forced : Нет
    Аудио
    Идентификатор : 2
    Формат : PCM
    Идентификатор кодека : A_PCM/INT/LIT
    Продолжительность : 3 м. 23 с.
    Вид битрейта : Постоянный
    Битрейт : 1536 Кбит/сек
    Каналы : 2 канала
    Частота : 48, 0 КГц
    Частота кадров : 32, 002 кадра/сек (1500 SPF)
    Битовая глубина : 16 бит
    Размер потока : 37, 3 Мбайт (31%)
    Default : Да
    Forced : Нет
    Общее
    Уникальный идентификатор : 238479626215611473156814727026565980251 (0xB369815D02EE9354A493B3B0F0F0205B)
    Полное имя : E: \Турецкие клипы\Turkish clips from ALEXnROCK mkv disc 1\Turkish clips from ALEXnROCK mkv disc 1\003 Mustafa Sandal - Isyankar ALEXnROCK.mkv
    Формат : Matroska
    Версия формата : Version 4/Version 2
    Размер файла : 134 Мбайт
    Продолжительность : 3 м. 47 с.
    Общий поток : 4944 Кбит/сек
    Дата кодирования : UTC 2017-07-29 17: 05: 24
    Программа кодирования : mkvmerge v9.8.0 (\\'Kuglblids\\') 64bit
    Библиотека кодирования : libebml v1.3.4 + libmatroska v1.4.5
    Видео
    Идентификатор : 1
    Формат : AVC
    Формат/Информация : Advanced Video Codec
    Профиль формата : High@L4
    Настройки формата : CABAC/4 Ref Frames
    Параметр CABAC формата : Да
    Параметр RefFrames формата : 4 кадра
    Идентификатор кодека : V_MPEG4/ISO/AVC
    Продолжительность : 3 м. 47 с.
    Битрейт : 3400 Кбит/сек
    Ширина : 1280 пикселей
    Высота : 696 пикселей
    Соотношение сторон : 1, 85: 1
    Режим частоты кадров : Постоянный
    Частота кадров : 25, 000 кадров/сек
    Цветовое пространство : YUV
    Субдискретизация насыщенности : 4: 2: 0
    Битовая глубина : 8 бит
    Тип развёртки : Прогрессивная
    Бит/(Пиксели*Кадры) : 0.153
    Размер потока : 92, 5 Мбайт (69%)
    Библиотека кодирования : x264 core 146 r2538 121396c
    Настройки программы : cabac=1/ref=3/deblock=1: -1: -1/analyse=0x3: 0x113/me=hex/subme=7/psy=1/psy_rd=1.00: 0.20/mixed_ref=1/me_range=16/chroma_me=1/trellis=1/8x8dct=1/cqm=0/deadzone=21, 11/fast_pskip=1/chroma_qp_offset=-3/threads=12/lookahead_threads=2/sliced_threads=0/nr=0/decimate=0/interlaced=0/bluray_compat=0/constrained_intra=0/bframes=3/b_pyramid=2/b_adapt=1/b_bias=0/direct=3/weightb=1/open_gop=0/weightp=2/keyint=250/keyint_min=25/scenecut=40/intra_refresh=0/rc_lookahead=40/rc=2pass/mbtree=1/bitrate=3400/ratetol=1.0/qcomp=0.60/qpmin=0/qpmax=69/qpstep=4/cplxblur=20.0/qblur=0.5/vbv_maxrate=14000/vbv_bufsize=14000/nal_hrd=none/filler=0/ip_ratio=1.40/aq=1: 1.00
    Default : Да
    Forced : Нет
    Аудио
    Идентификатор : 2
    Формат : PCM
    Идентификатор кодека : A_PCM/INT/LIT
    Продолжительность : 3 м. 47 с.
    Вид битрейта : Постоянный
    Битрейт : 1536 Кбит/сек
    Каналы : 2 канала
    Частота : 48, 0 КГц
    Частота кадров : 32, 004 кадра/сек (1500 SPF)
    Битовая глубина : 16 бит
    Размер потока : 41, 7 Мбайт (31%)
    Default : Да
    Forced : Нет
    Общее
    Уникальный идентификатор : 227629972630822166318453018194712249608 (0xAB3FF0243D606772AC6EBC310C94C508)
    Полное имя : E: \Турецкие клипы\Turkish clips from ALEXnROCK mkv disc 1\Turkish clips from ALEXnROCK mkv disc 1\004 Berksan - Opuselim mi ALEXnROCK.mkv
    Формат : Matroska
    Версия формата : Version 2
    Размер файла : 151 Мбайт
    Продолжительность : 4 м. 17 с.
    Общий поток : 4937 Кбит/сек
    Дата кодирования : UTC 2017-07-29 12: 17: 35
    Программа кодирования : mkvmerge v7.8.0 (\\'River Man\\') 32bit built on Apr 3 2015 12: 11: 22
    Библиотека кодирования : libebml v1.3.1 + libmatroska v1.4.2
    Видео
    Идентификатор : 1
    Формат : AVC
    Формат/Информация : Advanced Video Codec
    Профиль формата : High@L4
    Настройки формата : CABAC/4 Ref Frames
    Параметр CABAC формата : Да
    Параметр RefFrames формата : 4 кадра
    Идентификатор кодека : V_MPEG4/ISO/AVC
    Продолжительность : 4 м. 17 с.
    Номинальный битрейт : 3400 Кбит/сек
    Ширина : 1280 пикселей
    Высота : 704 пикселя
    Соотношение сторон : 16: 9
    Режим частоты кадров : Постоянный
    Частота кадров : 25, 000 кадров/сек
    Цветовое пространство : YUV
    Субдискретизация насыщенности : 4: 2: 0
    Битовая глубина : 8 бит
    Тип развёртки : Прогрессивная
    Бит/(Пиксели*Кадры) : 0.151
    Библиотека кодирования : x264 core 146 r2538 121396c
    Настройки программы : cabac=1/ref=3/deblock=1: -1: -1/analyse=0x3: 0x113/me=hex/subme=7/psy=1/psy_rd=1.00: 0.20/mixed_ref=1/me_range=16/chroma_me=1/trellis=1/8x8dct=1/cqm=0/deadzone=21, 11/fast_pskip=1/chroma_qp_offset=-3/threads=12/lookahead_threads=2/sliced_threads=0/nr=0/decimate=0/interlaced=0/bluray_compat=0/constrained_intra=0/bframes=3/b_pyramid=2/b_adapt=1/b_bias=0/direct=3/weightb=1/open_gop=0/weightp=2/keyint=250/keyint_min=25/scenecut=40/intra_refresh=0/rc_lookahead=40/rc=2pass/mbtree=1/bitrate=3400/ratetol=1.0/qcomp=0.60/qpmin=0/qpmax=69/qpstep=4/cplxblur=20.0/qblur=0.5/vbv_maxrate=14000/vbv_bufsize=14000/nal_hrd=none/filler=0/ip_ratio=1.40/aq=1: 1.00
    Default : Да
    Forced : Нет
    Аудио
    Идентификатор : 2
    Формат : PCM
    Идентификатор кодека : A_PCM/INT/LIT
    Продолжительность : 4 м. 17 с.
    Вид битрейта : Постоянный
    Каналы : 2 канала
    Частота : 48, 0 КГц
    Битовая глубина : 16 бит
    Default : Да
    Forced : Нет
    Общее
    Уникальный идентификатор : 206801891212832099053577235183485236700 (0x9B949871A83B0C08821AE5402F12B5DC)
    Полное имя : E: \Турецкие клипы\Turkish clips from ALEXnROCK mkv disc 1\Turkish clips from ALEXnROCK mkv disc 1\005 Eylem - Aman ALEXnROCK.mkv
    Формат : Matroska
    Версия формата : Version 4/Version 2
    Размер файла : 115 Мбайт
    Продолжительность : 3 м. 16 с.
    Общий поток : 4920 Кбит/сек
    Дата кодирования : UTC 2017-07-29 17: 31: 06
    Программа кодирования : mkvmerge v9.8.0 (\\'Kuglblids\\') 64bit
    Библиотека кодирования : libebml v1.3.4 + libmatroska v1.4.5
    Видео
    Идентификатор : 1
    Формат : AVC
    Формат/Информация : Advanced Video Codec
    Профиль формата : High@L4
    Настройки формата : CABAC/4 Ref Frames
    Параметр CABAC формата : Да
    Параметр RefFrames формата : 4 кадра
    Идентификатор кодека : V_MPEG4/ISO/AVC
    Продолжительность : 3 м. 16 с.
    Битрейт : 3400 Кбит/сек
    Ширина : 1280 пикселей
    Высота : 672 пикселя
    Соотношение сторон : 1, 905
    Режим частоты кадров : Постоянный
    Частота кадров : 25, 000 кадров/сек
    Цветовое пространство : YUV
    Субдискретизация насыщенности : 4: 2: 0
    Битовая глубина : 8 бит
    Тип развёртки : Прогрессивная
    Бит/(Пиксели*Кадры) : 0.158
    Размер потока : 79, 8 Мбайт (69%)
    Библиотека кодирования : x264 core 146 r2538 121396c
    Настройки программы : cabac=1/ref=3/deblock=1: -1: -1/analyse=0x3: 0x113/me=hex/subme=7/psy=1/psy_rd=1.00: 0.20/mixed_ref=1/me_range=16/chroma_me=1/trellis=1/8x8dct=1/cqm=0/deadzone=21, 11/fast_pskip=1/chroma_qp_offset=-3/threads=12/lookahead_threads=2/sliced_threads=0/nr=0/decimate=0/interlaced=0/bluray_compat=0/constrained_intra=0/bframes=3/b_pyramid=2/b_adapt=1/b_bias=0/direct=3/weightb=1/open_gop=0/weightp=2/keyint=250/keyint_min=25/scenecut=40/intra_refresh=0/rc_lookahead=40/rc=2pass/mbtree=1/bitrate=3400/ratetol=1.0/qcomp=0.60/qpmin=0/qpmax=69/qpstep=4/cplxblur=20.0/qblur=0.5/vbv_maxrate=14000/vbv_bufsize=14000/nal_hrd=none/filler=0/ip_ratio=1.40/aq=1: 1.00
    Default : Да
    Forced : Нет
    Аудио
    Идентификатор : 2
    Формат : PCM
    Идентификатор кодека : A_PCM/INT/LIT
    Продолжительность : 3 м. 14 с.
    Вид битрейта : Постоянный
    Битрейт : 1536 Кбит/сек
    Каналы : 2 канала
    Частота : 48, 0 КГц
    Частота кадров : 32, 002 кадра/сек (1500 SPF)
    Битовая глубина : 16 бит
    Размер потока : 35, 6 Мбайт (31%)
    Default : Да
    Forced : Нет
    Общее
    Уникальный идентификатор : 188488262159912787626889848312846222226 (0x8DCD84D1C6AC53AFA1DCE7DD4F960392)
    Полное имя : E: \Турецкие клипы\Turkish clips from ALEXnROCK mkv disc 1\Turkish clips from ALEXnROCK mkv disc 1\006 Murat Boz - Aski Bulamam Ben ALEXnROCK.mkv
    Формат : Matroska
    Версия формата : Version 4/Version 2
    Размер файла : 134 Мбайт
    Продолжительность : 3 м. 48 с.
    Общий поток : 4916 Кбит/сек
    Дата кодирования : UTC 2017-07-29 19: 10: 36
    Программа кодирования : mkvmerge v9.8.0 (\\'Kuglblids\\') 64bit
    Библиотека кодирования : libebml v1.3.4 + libmatroska v1.4.5
    Видео
    Идентификатор : 1
    Формат : AVC
    Формат/Информация : Advanced Video Codec
    Профиль формата : High@L4
    Настройки формата : CABAC/4 Ref Frames
    Параметр CABAC формата : Да
    Параметр RefFrames формата : 4 кадра
    Идентификатор кодека : V_MPEG4/ISO/AVC
    Продолжительность : 3 м. 48 с.
    Битрейт : 3400 Кбит/сек
    Ширина : 1280 пикселей
    Высота : 688 пикселей
    Соотношение сторон : 1, 85: 1
    Режим частоты кадров : Постоянный
    Частота кадров : 25, 000 кадров/сек
    Цветовое пространство : YUV
    Субдискретизация насыщенности : 4: 2: 0
    Битовая глубина : 8 бит
    Тип развёртки : Прогрессивная
    Бит/(Пиксели*Кадры) : 0.154
    Размер потока : 92, 7 Мбайт (69%)
    Библиотека кодирования : x264 core 146 r2538 121396c
    Настройки программы : cabac=1/ref=3/deblock=1: -1: -1/analyse=0x3: 0x113/me=hex/subme=7/psy=1/psy_rd=1.00: 0.20/mixed_ref=1/me_range=16/chroma_me=1/trellis=1/8x8dct=1/cqm=0/deadzone=21, 11/fast_pskip=1/chroma_qp_offset=-3/threads=12/lookahead_threads=2/sliced_threads=0/nr=0/decimate=0/interlaced=0/bluray_compat=0/constrained_intra=0/bframes=3/b_pyramid=2/b_adapt=1/b_bias=0/direct=3/weightb=1/open_gop=0/weightp=2/keyint=250/keyint_min=25/scenecut=40/intra_refresh=0/rc_lookahead=40/rc=2pass/mbtree=1/bitrate=3400/ratetol=1.0/qcomp=0.60/qpmin=0/qpmax=69/qpstep=4/cplxblur=20.0/qblur=0.5/vbv_maxrate=14000/vbv_bufsize=14000/nal_hrd=none/filler=0/ip_ratio=1.40/aq=1: 1.00
    Default : Да
    Forced : Нет
    Аудио
    Идентификатор : 2
    Формат : PCM
    Идентификатор кодека : A_PCM/INT/LIT
    Продолжительность : 3 м. 45 с.
    Вид битрейта : Постоянный
    Битрейт : 1536 Кбит/сек
    Каналы : 2 канала
    Частота : 48, 0 КГц
    Частота кадров : 32, 000 кадра/сек (1500 SPF)
    Битовая глубина : 16 бит
    Размер потока : 41, 3 Мбайт (31%)
    Default : Да
    Forced : Нет
    Общее
    Уникальный идентификатор : 174650964804384276456699066803578785123 (0x83648D6317CBDCF1A915ACFB2434CD63)
    Полное имя : E: \Турецкие клипы\Turkish clips from ALEXnROCK mkv disc 1\Turkish clips from ALEXnROCK mkv disc 1\007 Ebru Polat - Olanlar Oldu ALEXnROCK.mkv
    Формат : Matroska
    Версия формата : Version 2
    Размер файла : 130 Мбайт
    Продолжительность : 3 м. 40 с.
    Общий поток : 4936 Кбит/сек
    Дата кодирования : UTC 2017-07-29 14: 11: 57
    Программа кодирования : mkvmerge v7.8.0 (\\'River Man\\') 32bit built on Apr 3 2015 12: 11: 22
    Библиотека кодирования : libebml v1.3.1 + libmatroska v1.4.2
    Видео
    Идентификатор : 1
    Формат : AVC
    Формат/Информация : Advanced Video Codec
    Профиль формата : High@L4
    Настройки формата : CABAC/4 Ref Frames
    Параметр CABAC формата : Да
    Параметр RefFrames формата : 4 кадра
    Идентификатор кодека : V_MPEG4/ISO/AVC
    Продолжительность : 3 м. 40 с.
    Номинальный битрейт : 3400 Кбит/сек
    Ширина : 1280 пикселей
    Высота : 720 пикселей
    Соотношение сторон : 16: 9
    Режим частоты кадров : Постоянный
    Частота кадров : 25, 000 кадров/сек
    Цветовое пространство : YUV
    Субдискретизация насыщенности : 4: 2: 0
    Битовая глубина : 8 бит
    Тип развёртки : Прогрессивная
    Бит/(Пиксели*Кадры) : 0.148
    Библиотека кодирования : x264 core 146 r2538 121396c
    Настройки программы : cabac=1/ref=3/deblock=1: -1: -1/analyse=0x3: 0x113/me=hex/subme=7/psy=1/psy_rd=1.00: 0.20/mixed_ref=1/me_range=16/chroma_me=1/trellis=1/8x8dct=1/cqm=0/deadzone=21, 11/fast_pskip=1/chroma_qp_offset=-3/threads=12/lookahead_threads=2/sliced_threads=0/nr=0/decimate=0/interlaced=0/bluray_compat=0/constrained_intra=0/bframes=3/b_pyramid=2/b_adapt=1/b_bias=0/direct=3/weightb=1/open_gop=0/weightp=2/keyint=250/keyint_min=25/scenecut=40/intra_refresh=0/rc_lookahead=40/rc=2pass/mbtree=1/bitrate=3400/ratetol=1.0/qcomp=0.60/qpmin=0/qpmax=69/qpstep=4/cplxblur=20.0/qblur=0.5/vbv_maxrate=14000/vbv_bufsize=14000/nal_hrd=none/filler=0/ip_ratio=1.40/aq=1: 1.00
    Default : Да
    Forced : Нет
    Аудио
    Идентификатор : 2
    Формат : PCM
    Идентификатор кодека : A_PCM/INT/LIT
    Продолжительность : 3 м. 40 с.
    Вид битрейта : Постоянный
    Каналы : 2 канала
    Частота : 48, 0 КГц
    Битовая глубина : 16 бит
    Default : Да
    Forced : Нет
    Общее
    Уникальный идентификатор : 214840654897211908884171561123236825425 (0xA1A0CE1802015F29B5127A027F9C4951)
    Полное имя : E: \Турецкие клипы\Turkish clips from ALEXnROCK mkv disc 1\Turkish clips from ALEXnROCK mkv disc 1\008 Tarkan - Dudu ALEXnROCK.mkv
    Формат : Matroska
    Версия формата : Version 4/Version 2
    Размер файла : 157 Мбайт
    Продолжительность : 4 м. 26 с.
    Общий поток : 4936 Кбит/сек
    Дата кодирования : UTC 2017-06-28 13: 46: 47
    Программа кодирования : mkvmerge v9.8.0 (\\'Kuglblids\\') 64bit
    Библиотека кодирования : libebml v1.3.4 + libmatroska v1.4.5
    Видео
    Идентификатор : 1
    Формат : AVC
    Формат/Информация : Advanced Video Codec
    Профиль формата : High@L4
    Настройки формата : CABAC/4 Ref Frames
    Параметр CABAC формата : Да
    Параметр RefFrames формата : 4 кадра
    Идентификатор кодека : V_MPEG4/ISO/AVC
    Продолжительность : 4 м. 26 с.
    Битрейт : 3400 Кбит/сек
    Ширина : 1280 пикселей
    Высота : 904 пикселя
    Соотношение сторон : 1, 416
    Режим частоты кадров : Постоянный
    Частота кадров : 25, 000 кадров/сек
    Цветовое пространство : YUV
    Субдискретизация насыщенности : 4: 2: 0
    Битовая глубина : 8 бит
    Тип развёртки : Прогрессивная
    Бит/(Пиксели*Кадры) : 0.118
    Размер потока : 108 Мбайт (69%)
    Библиотека кодирования : x264 core 146 r2538 121396c
    Настройки программы : cabac=1/ref=3/deblock=1: -1: -1/analyse=0x3: 0x113/me=hex/subme=7/psy=1/psy_rd=1.00: 0.20/mixed_ref=1/me_range=16/chroma_me=1/trellis=1/8x8dct=1/cqm=0/deadzone=21, 11/fast_pskip=1/chroma_qp_offset=-3/threads=12/lookahead_threads=2/sliced_threads=0/nr=0/decimate=0/interlaced=0/bluray_compat=0/constrained_intra=0/bframes=3/b_pyramid=2/b_adapt=1/b_bias=0/direct=3/weightb=1/open_gop=0/weightp=2/keyint=250/keyint_min=25/scenecut=40/intra_refresh=0/rc_lookahead=40/rc=2pass/mbtree=1/bitrate=3400/ratetol=1.0/qcomp=0.60/qpmin=0/qpmax=69/qpstep=4/cplxblur=20.0/qblur=0.5/vbv_maxrate=14000/vbv_bufsize=14000/nal_hrd=none/filler=0/ip_ratio=1.40/aq=1: 1.00
    Default : Да
    Forced : Нет
    Аудио
    Идентификатор : 2
    Формат : PCM
    Идентификатор кодека : A_PCM/INT/LIT
    Продолжительность : 4 м. 26 с.
    Вид битрейта : Постоянный
    Битрейт : 1536 Кбит/сек
    Каналы : 2 канала
    Частота : 48, 0 КГц
    Частота кадров : 32, 002 кадра/сек (1500 SPF)
    Битовая глубина : 16 бит
    Размер потока : 48, 7 Мбайт (31%)
    Default : Да
    Forced : Нет
    Общее
    Уникальный идентификатор : 252659845825943050911044942167847058957 (0xBE14842B0F611AFB828324EEFD11BE0D)
    Полное имя : E: \Турецкие клипы\Turkish clips from ALEXnROCK mkv disc 1\Turkish clips from ALEXnROCK mkv disc 1\009 Kenan Dogulu - Aklim karisti ALEXnROCK.mkv
    Формат : Matroska
    Версия формата : Version 4/Version 2
    Размер файла : 147 Мбайт
    Продолжительность : 4 м. 9 с.
    Общий поток : 4938 Кбит/сек
    Дата кодирования : UTC 2017-07-29 21: 32: 41
    Программа кодирования : mkvmerge v9.8.0 (\\'Kuglblids\\') 64bit
    Библиотека кодирования : libebml v1.3.4 + libmatroska v1.4.5
    Видео
    Идентификатор : 1
    Формат : AVC
    Формат/Информация : Advanced Video Codec
    Профиль формата : High@L4
    Настройки формата : CABAC/4 Ref Frames
    Параметр CABAC формата : Да
    Параметр RefFrames формата : 4 кадра
    Идентификатор кодека : V_MPEG4/ISO/AVC
    Продолжительность : 4 м. 9 с.
    Битрейт : 3400 Кбит/сек
    Ширина : 1280 пикселей
    Высота : 704 пикселя
    Соотношение сторон : 16: 9
    Режим частоты кадров : Постоянный
    Частота кадров : 25, 000 кадров/сек
    Цветовое пространство : YUV
    Субдискретизация насыщенности : 4: 2: 0
    Битовая глубина : 8 бит
    Тип развёртки : Прогрессивная
    Бит/(Пиксели*Кадры) : 0.151
    Размер потока : 101 Мбайт (69%)
    Библиотека кодирования : x264 core 146 r2538 121396c
    Настройки программы : cabac=1/ref=3/deblock=1: -1: -1/analyse=0x3: 0x113/me=hex/subme=7/psy=1/psy_rd=1.00: 0.20/mixed_ref=1/me_range=16/chroma_me=1/trellis=1/8x8dct=1/cqm=0/deadzone=21, 11/fast_pskip=1/chroma_qp_offset=-3/threads=12/lookahead_threads=2/sliced_threads=0/nr=0/decimate=0/interlaced=0/bluray_compat=0/constrained_intra=0/bframes=3/b_pyramid=2/b_adapt=1/b_bias=0/direct=3/weightb=1/open_gop=0/weightp=2/keyint=250/keyint_min=25/scenecut=40/intra_refresh=0/rc_lookahead=40/rc=2pass/mbtree=1/bitrate=3400/ratetol=1.0/qcomp=0.60/qpmin=0/qpmax=69/qpstep=4/cplxblur=20.0/qblur=0.5/vbv_maxrate=14000/vbv_bufsize=14000/nal_hrd=none/filler=0/ip_ratio=1.40/aq=1: 1.00
    Default : Да
    Forced : Нет
    Аудио
    Идентификатор : 2
    Формат : PCM
    Идентификатор кодека : A_PCM/INT/LIT
    Продолжительность : 4 м. 8 с.
    Вид битрейта : Постоянный
    Битрейт : 1536 Кбит/сек
    Каналы : 2 канала
    Частота : 48, 0 КГц
    Частота кадров : 32, 001 кадра/сек (1500 SPF)
    Битовая глубина : 16 бит
    Размер потока : 45, 6 Мбайт (31%)
    Default : Да
    Forced : Нет
    Общее
    Уникальный идентификатор : 253500933992168345935460425801019535226 (0xBEB681043706729C8E1ABDACE70DAF7A)
    Полное имя : E: \Турецкие клипы\Turkish clips from ALEXnROCK mkv disc 1\Turkish clips from ALEXnROCK mkv disc 1\010 4 yuz - Kiz Kiza ALEXnROCK.mkv
    Формат : Matroska
    Версия формата : Version 2
    Размер файла : 112 Мбайт
    Продолжительность : 3 м. 10 с.
    Общий поток : 4950 Кбит/сек
    Дата кодирования : UTC 2017-07-29 16: 06: 35
    Программа кодирования : mkvmerge v7.8.0 (\\'River Man\\') 32bit built on Apr 3 2015 12: 11: 22
    Библиотека кодирования : libebml v1.3.1 + libmatroska v1.4.2
    Видео
    Идентификатор : 1
    Формат : AVC
    Формат/Информация : Advanced Video Codec
    Профиль формата : High@L4
    Настройки формата : CABAC/4 Ref Frames
    Параметр CABAC формата : Да
    Параметр RefFrames формата : 4 кадра
    Идентификатор кодека : V_MPEG4/ISO/AVC
    Продолжительность : 3 м. 10 с.
    Номинальный битрейт : 3400 Кбит/сек
    Ширина : 1280 пикселей
    Высота : 688 пикселей
    Соотношение сторон : 1, 85: 1
    Режим частоты кадров : Постоянный
    Частота кадров : 25, 000 кадров/сек
    Цветовое пространство : YUV
    Субдискретизация насыщенности : 4: 2: 0
    Битовая глубина : 8 бит
    Тип развёртки : Прогрессивная
    Бит/(Пиксели*Кадры) : 0.154
    Библиотека кодирования : x264 core 146 r2538 121396c
    Настройки программы : cabac=1/ref=3/deblock=1: -1: -1/analyse=0x3: 0x113/me=hex/subme=7/psy=1/psy_rd=1.00: 0.20/mixed_ref=1/me_range=16/chroma_me=1/trellis=1/8x8dct=1/cqm=0/deadzone=21, 11/fast_pskip=1/chroma_qp_offset=-3/threads=12/lookahead_threads=2/sliced_threads=0/nr=0/decimate=0/interlaced=0/bluray_compat=0/constrained_intra=0/bframes=3/b_pyramid=2/b_adapt=1/b_bias=0/direct=3/weightb=1/open_gop=0/weightp=2/keyint=250/keyint_min=25/scenecut=40/intra_refresh=0/rc_lookahead=40/rc=2pass/mbtree=1/bitrate=3400/ratetol=1.0/qcomp=0.60/qpmin=0/qpmax=69/qpstep=4/cplxblur=20.0/qblur=0.5/vbv_maxrate=14000/vbv_bufsize=14000/nal_hrd=none/filler=0/ip_ratio=1.40/aq=1: 1.00
    Default : Да
    Forced : Нет
    Аудио
    Идентификатор : 2
    Формат : PCM
    Идентификатор кодека : A_PCM/INT/LIT
    Продолжительность : 3 м. 10 с.
    Вид битрейта : Постоянный
    Каналы : 2 канала
    Частота : 48, 0 КГц
    Битовая глубина : 16 бит
    Default : Да
    Forced : Нет
    Общее
    Уникальный идентификатор : 202749793519338476148848865710469236103 (0x9888309A6276480B9306E95F9FD74587)
    Полное имя : E: \Турецкие клипы\Turkish clips from ALEXnROCK mkv disc 1\Turkish clips from ALEXnROCK mkv disc 1\011 Mustafa Sandal - Tesir Altinda ALEXnROCK.mkv
    Формат : Matroska
    Версия формата : Version 4/Version 2
    Размер файла : 136 Мбайт
    Продолжительность : 3 м. 52 с.
    Общий поток : 4923 Кбит/сек
    Дата кодирования : UTC 2017-07-29 20: 49: 06
    Программа кодирования : mkvmerge v9.8.0 (\\'Kuglblids\\') 64bit
    Библиотека кодирования : libebml v1.3.4 + libmatroska v1.4.5
    Видео
    Идентификатор : 1
    Формат : AVC
    Формат/Информация : Advanced Video Codec
    Профиль формата : High@L4
    Настройки формата : CABAC/4 Ref Frames
    Параметр CABAC формата : Да
    Параметр RefFrames формата : 4 кадра
    Идентификатор кодека : V_MPEG4/ISO/AVC
    Продолжительность : 3 м. 51 с.
    Битрейт : 3400 Кбит/сек
    Ширина : 1280 пикселей
    Высота : 496 пикселей
    Соотношение сторон : 2, 581
    Режим частоты кадров : Постоянный
    Частота кадров : 25, 000 кадров/сек
    Цветовое пространство : YUV
    Субдискретизация насыщенности : 4: 2: 0
    Битовая глубина : 8 бит
    Тип развёртки : Прогрессивная
    Бит/(Пиксели*Кадры) : 0.214
    Размер потока : 93, 7 Мбайт (69%)
    Библиотека кодирования : x264 core 146 r2538 121396c
    Настройки программы : cabac=1/ref=3/deblock=1: -1: -1/analyse=0x3: 0x113/me=hex/subme=7/psy=1/psy_rd=1.00: 0.20/mixed_ref=1/me_range=16/chroma_me=1/trellis=1/8x8dct=1/cqm=0/deadzone=21, 11/fast_pskip=1/chroma_qp_offset=-3/threads=12/lookahead_threads=2/sliced_threads=0/nr=0/decimate=0/interlaced=0/bluray_compat=0/constrained_intra=0/bframes=3/b_pyramid=2/b_adapt=1/b_bias=0/direct=3/weightb=1/open_gop=0/weightp=2/keyint=250/keyint_min=25/scenecut=40/intra_refresh=0/rc_lookahead=40/rc=2pass/mbtree=1/bitrate=3400/ratetol=1.0/qcomp=0.60/qpmin=0/qpmax=69/qpstep=4/cplxblur=20.0/qblur=0.5/vbv_maxrate=14000/vbv_bufsize=14000/nal_hrd=none/filler=0/ip_ratio=1.40/aq=1: 1.00
    Default : Да
    Forced : Нет
    Аудио
    Идентификатор : 2
    Формат : PCM
    Идентификатор кодека : A_PCM/INT/LIT
    Продолжительность : 3 м. 52 с.
    Вид битрейта : Постоянный
    Битрейт : 1536 Кбит/сек
    Каналы : 2 канала
    Частота : 48, 0 КГц
    Частота кадров : 32, 000 кадра/сек (1500 SPF)
    Битовая глубина : 16 бит
    Размер потока : 42, 5 Мбайт (31%)
    Default : Да
    Forced : Нет
    Общее
    Уникальный идентификатор : 196298109246089027854923525707386488647 (0x93ADA40272DD114E98BB5CB0ED2E8747)
    Полное имя : E: \Турецкие клипы\Turkish clips from ALEXnROCK mkv disc 1\Turkish clips from ALEXnROCK mkv disc 1\012 Hepsi - Olmaz oglan ALEXnROCK.mkv
    Формат : Matroska
    Версия формата : Version 4/Version 2
    Размер файла : 134 Мбайт
    Продолжительность : 3 м. 46 с.
    Общий поток : 4937 Кбит/сек
    Дата кодирования : UTC 2017-07-29 19: 49: 10
    Программа кодирования : mkvmerge v9.8.0 (\\'Kuglblids\\') 64bit
    Библиотека кодирования : libebml v1.3.4 + libmatroska v1.4.5
    Видео
    Идентификатор : 1
    Формат : AVC
    Формат/Информация : Advanced Video Codec
    Профиль формата : High@L4
    Настройки формата : CABAC/4 Ref Frames
    Параметр CABAC формата : Да
    Параметр RefFrames формата : 4 кадра
    Идентификатор кодека : V_MPEG4/ISO/AVC
    Продолжительность : 3 м. 46 с.
    Битрейт : 3400 Кбит/сек
    Ширина : 1280 пикселей
    Высота : 912 пикселей
    Соотношение сторон : 1, 404
    Режим частоты кадров : Постоянный
    Частота кадров : 25, 000 кадров/сек
    Цветовое пространство : YUV
    Субдискретизация насыщенности : 4: 2: 0
    Битовая глубина : 8 бит
    Тип развёртки : Прогрессивная
    Бит/(Пиксели*Кадры) : 0.117
    Размер потока : 92, 0 Мбайт (69%)
    Библиотека кодирования : x264 core 146 r2538 121396c
    Настройки программы : cabac=1/ref=3/deblock=1: -1: -1/analyse=0x3: 0x113/me=hex/subme=7/psy=1/psy_rd=1.00: 0.20/mixed_ref=1/me_range=16/chroma_me=1/trellis=1/8x8dct=1/cqm=0/deadzone=21, 11/fast_pskip=1/chroma_qp_offset=-3/threads=12/lookahead_threads=2/sliced_threads=0/nr=0/decimate=0/interlaced=0/bluray_compat=0/constrained_intra=0/bframes=3/b_pyramid=2/b_adapt=1/b_bias=0/direct=3/weightb=1/open_gop=0/weightp=2/keyint=250/keyint_min=25/scenecut=40/intra_refresh=0/rc_lookahead=40/rc=2pass/mbtree=1/bitrate=3400/ratetol=1.0/qcomp=0.60/qpmin=0/qpmax=69/qpstep=4/cplxblur=20.0/qblur=0.5/vbv_maxrate=14000/vbv_bufsize=14000/nal_hrd=none/filler=0/ip_ratio=1.40/aq=1: 1.00
    Default : Да
    Forced : Нет
    Аудио
    Идентификатор : 2
    Формат : PCM
    Идентификатор кодека : A_PCM/INT/LIT
    Продолжительность : 3 м. 46 с.
    Вид битрейта : Постоянный
    Битрейт : 1536 Кбит/сек
    Каналы : 2 канала
    Частота : 48, 0 КГц
    Частота кадров : 32, 004 кадра/сек (1500 SPF)
    Битовая глубина : 16 бит
    Размер потока : 41, 5 Мбайт (31%)
    Default : Да
    Forced : Нет
    Общее
    Уникальный идентификатор : 231555291549805706685224130316345056447 (0xAE33ED4E693F328A925B20FA39F89CBF)
    Полное имя : E: \Турецкие клипы\Turkish clips from ALEXnROCK mkv disc 1\Turkish clips from ALEXnROCK mkv disc 1\013 Murat Dalkilic - Bu Nasil Ask ALEXnROCK.mkv
    Формат : Matroska
    Версия формата : Version 4/Version 2
    Размер файла : 159 Мбайт
    Продолжительность : 4 м. 32 с.
    Общий поток : 4911 Кбит/сек
    Дата кодирования : UTC 2017-07-29 21: 47: 10
    Программа кодирования : mkvmerge v9.8.0 (\\'Kuglblids\\') 64bit
    Библиотека кодирования : libebml v1.3.4 + libmatroska v1.4.5
    Видео
    Идентификатор : 1
    Формат : AVC
    Формат/Информация : Advanced Video Codec
    Профиль формата : High@L4
    Настройки формата : CABAC/4 Ref Frames
    Параметр CABAC формата : Да
    Параметр RefFrames формата : 4 кадра
    Идентификатор кодека : V_MPEG4/ISO/AVC
    Продолжительность : 4 м. 32 с.
    Битрейт : 3400 Кбит/сек
    Ширина : 1280 пикселей
    Высота : 576 пикселей
    Соотношение сторон : 2, 222
    Режим частоты кадров : Постоянный
    Частота кадров : 25, 000 кадров/сек
    Цветовое пространство : YUV
    Субдискретизация насыщенности : 4: 2: 0
    Битовая глубина : 8 бит
    Тип развёртки : Прогрессивная
    Бит/(Пиксели*Кадры) : 0.184
    Размер потока : 110 Мбайт (69%)
    Библиотека кодирования : x264 core 146 r2538 121396c
    Настройки программы : cabac=1/ref=3/deblock=1: -1: -1/analyse=0x3: 0x113/me=hex/subme=7/psy=1/psy_rd=1.00: 0.20/mixed_ref=1/me_range=16/chroma_me=1/trellis=1/8x8dct=1/cqm=0/deadzone=21, 11/fast_pskip=1/chroma_qp_offset=-3/threads=12/lookahead_threads=2/sliced_threads=0/nr=0/decimate=0/interlaced=0/bluray_compat=0/constrained_intra=0/bframes=3/b_pyramid=2/b_adapt=1/b_bias=0/direct=3/weightb=1/open_gop=0/weightp=2/keyint=250/keyint_min=25/scenecut=40/intra_refresh=0/rc_lookahead=40/rc=2pass/mbtree=1/bitrate=3400/ratetol=1.0/qcomp=0.60/qpmin=0/qpmax=69/qpstep=4/cplxblur=20.0/qblur=0.5/vbv_maxrate=14000/vbv_bufsize=14000/nal_hrd=none/filler=0/ip_ratio=1.40/aq=1: 1.00
    Default : Да
    Forced : Нет
    Аудио
    Идентификатор : 2
    Формат : PCM
    Идентификатор кодека : A_PCM/INT/LIT
    Продолжительность : 4 м. 28 с.
    Вид битрейта : Постоянный
    Битрейт : 1536 Кбит/сек
    Каналы : 2 канала
    Частота : 48, 0 КГц
    Частота кадров : 32, 002 кадра/сек (1500 SPF)
    Битовая глубина : 16 бит
    Размер потока : 49, 2 Мбайт (31%)
    Default : Да
    Forced : Нет
    Общее
    Уникальный идентификатор : 198428572272524815843304496846769947775 (0x9547F3F25059CCC6AA1C2E67D49F047F)
    Полное имя : E: \Турецкие клипы\Turkish clips from ALEXnROCK mkv disc 1\Turkish clips from ALEXnROCK mkv disc 1\014 Murat Boz - Maximum ALEXnROCK.mkv
    Формат : Matroska
    Версия формата : Version 4/Version 2
    Размер файла : 135 Мбайт
    Продолжительность : 3 м. 50 с.
    Общий поток : 4919 Кбит/сек
    Дата кодирования : UTC 2017-07-29 19: 32: 37
    Программа кодирования : mkvmerge v9.8.0 (\\'Kuglblids\\') 64bit
    Библиотека кодирования : libebml v1.3.4 + libmatroska v1.4.5
    Видео
    Идентификатор : 1
    Формат : AVC
    Формат/Информация : Advanced Video Codec
    Профиль формата : High@L4
    Настройки формата : CABAC/4 Ref Frames
    Параметр CABAC формата : Да
    Параметр RefFrames формата : 4 кадра
    Идентификатор кодека : V_MPEG4/ISO/AVC
    Продолжительность : 3 м. 50 с.
    Битрейт : 3400 Кбит/сек
    Ширина : 1280 пикселей
    Высота : 880 пикселей
    Соотношение сторон : 3: 2
    Режим частоты кадров : Постоянный
    Частота кадров : 25, 000 кадров/сек
    Цветовое пространство : YUV
    Субдискретизация насыщенности : 4: 2: 0
    Битовая глубина : 8 бит
    Тип развёртки : Прогрессивная
    Бит/(Пиксели*Кадры) : 0.121
    Размер потока : 93, 1 Мбайт (69%)
    Библиотека кодирования : x264 core 146 r2538 121396c
    Настройки программы : cabac=1/ref=3/deblock=1: -1: -1/analyse=0x3: 0x113/me=hex/subme=7/psy=1/psy_rd=1.00: 0.20/mixed_ref=1/me_range=16/chroma_me=1/trellis=1/8x8dct=1/cqm=0/deadzone=21, 11/fast_pskip=1/chroma_qp_offset=-3/threads=12/lookahead_threads=2/sliced_threads=0/nr=0/decimate=0/interlaced=0/bluray_compat=0/constrained_intra=0/bframes=3/b_pyramid=2/b_adapt=1/b_bias=0/direct=3/weightb=1/open_gop=0/weightp=2/keyint=250/keyint_min=25/scenecut=40/intra_refresh=0/rc_lookahead=40/rc=2pass/mbtree=1/bitrate=3400/ratetol=1.0/qcomp=0.60/qpmin=0/qpmax=69/qpstep=4/cplxblur=20.0/qblur=0.5/vbv_maxrate=14000/vbv_bufsize=14000/nal_hrd=none/filler=0/ip_ratio=1.40/aq=1: 1.00
    Default : Да
    Forced : Нет
    Аудио
    Идентификатор : 2
    Формат : PCM
    Идентификатор кодека : A_PCM/INT/LIT
    Продолжительность : 3 м. 47 с.
    Вид битрейта : Постоянный
    Битрейт : 1536 Кбит/сек
    Каналы : 2 канала
    Частота : 48, 0 КГц
    Частота кадров : 32, 001 кадра/сек (1500 SPF)
    Битовая глубина : 16 бит
    Размер потока : 41, 7 Мбайт (31%)
    Default : Да
    Forced : Нет
    Общее
    Уникальный идентификатор : 232837300594690416659624090680511137305 (0xAF2AD53B7625742A8CC56BAFC3EB8619)
    Полное имя : E: \Турецкие клипы\Turkish clips from ALEXnROCK mkv disc 1\Turkish clips from ALEXnROCK mkv disc 1\015 Bendeniz - Kirmizibiber ALEXnROCK.mkv
    Формат : Matroska
    Версия формата : Version 4/Version 2
    Размер файла : 166 Мбайт
    Продолжительность : 4 м. 42 с.
    Общий поток : 4936 Кбит/сек
    Дата кодирования : UTC 2017-07-29 23: 53: 39
    Программа кодирования : mkvmerge v9.8.0 (\\'Kuglblids\\') 64bit
    Библиотека кодирования : libebml v1.3.4 + libmatroska v1.4.5
    Видео
    Идентификатор : 1
    Формат : AVC
    Формат/Информация : Advanced Video Codec
    Профиль формата : High@L4
    Настройки формата : CABAC/4 Ref Frames
    Параметр CABAC формата : Да
    Параметр RefFrames формата : 4 кадра
    Идентификатор кодека : V_MPEG4/ISO/AVC
    Продолжительность : 4 м. 41 с.
    Битрейт : 3400 Кбит/сек
    Ширина : 1280 пикселей
    Высота : 704 пикселя
    Соотношение сторон : 16: 9
    Режим частоты кадров : Постоянный
    Частота кадров : 25, 000 кадров/сек
    Цветовое пространство : YUV
    Субдискретизация насыщенности : 4: 2: 0
    Битовая глубина : 8 бит
    Тип развёртки : Прогрессивная
    Бит/(Пиксели*Кадры) : 0.151
    Размер потока : 114 Мбайт (69%)
    Библиотека кодирования : x264 core 146 r2538 121396c
    Настройки программы : cabac=1/ref=3/deblock=1: -1: -1/analyse=0x3: 0x113/me=hex/subme=7/psy=1/psy_rd=1.00: 0.20/mixed_ref=1/me_range=16/chroma_me=1/trellis=1/8x8dct=1/cqm=0/deadzone=21, 11/fast_pskip=1/chroma_qp_offset=-3/threads=12/lookahead_threads=2/sliced_threads=0/nr=0/decimate=0/interlaced=0/bluray_compat=0/constrained_intra=0/bframes=3/b_pyramid=2/b_adapt=1/b_bias=0/direct=3/weightb=1/open_gop=0/weightp=2/keyint=250/keyint_min=25/scenecut=40/intra_refresh=0/rc_lookahead=40/rc=2pass/mbtree=1/bitrate=3400/ratetol=1.0/qcomp=0.60/qpmin=0/qpmax=69/qpstep=4/cplxblur=20.0/qblur=0.5/vbv_maxrate=14000/vbv_bufsize=14000/nal_hrd=none/filler=0/ip_ratio=1.40/aq=1: 1.00
    Default : Да
    Forced : Нет
    Аудио
    Идентификатор : 2
    Формат : PCM
    Идентификатор кодека : A_PCM/INT/LIT
    Продолжительность : 4 м. 42 с.
    Вид битрейта : Постоянный
    Битрейт : 1536 Кбит/сек
    Каналы : 2 канала
    Частота : 48, 0 КГц
    Частота кадров : 32, 004 кадра/сек (1500 SPF)
    Битовая глубина : 16 бит
    Размер потока : 51, 7 Мбайт (31%)
    Default : Да
    Forced : Нет
    Общее
    Уникальный идентификатор : 198983119849698889084602977723416241884 (0x95B2C140C5FA727B8F16D7B09C22E6DC)
    Полное имя : E: \Турецкие клипы\Turkish clips from ALEXnROCK mkv disc 1\Turkish clips from ALEXnROCK mkv disc 1\016 Gokhan Ozen - Benim icin napardin ALEXnROCK.mkv
    Формат : Matroska
    Версия формата : Version 4/Version 2
    Размер файла : 146 Мбайт
    Продолжительность : 4 м. 8 с.
    Общий поток : 4938 Кбит/сек
    Дата кодирования : UTC 2017-07-30 00: 07: 08
    Программа кодирования : mkvmerge v9.8.0 (\\'Kuglblids\\') 64bit
    Библиотека кодирования : libebml v1.3.4 + libmatroska v1.4.5
    Видео
    Идентификатор : 1
    Формат : AVC
    Формат/Информация : Advanced Video Codec
    Профиль формата : High@L4
    Настройки формата : CABAC/4 Ref Frames
    Параметр CABAC формата : Да
    Параметр RefFrames формата : 4 кадра
    Идентификатор кодека : V_MPEG4/ISO/AVC
    Продолжительность : 4 м. 8 с.
    Битрейт : 3400 Кбит/сек
    Ширина : 1280 пикселей
    Высота : 768 пикселей
    Соотношение сторон : 5: 3
    Режим частоты кадров : Постоянный
    Частота кадров : 25, 000 кадров/сек
    Цветовое пространство : YUV
    Субдискретизация насыщенности : 4: 2: 0
    Битовая глубина : 8 бит
    Тип развёртки : Прогрессивная
    Бит/(Пиксели*Кадры) : 0.138
    Размер потока : 101 Мбайт (69%)
    Библиотека кодирования : x264 core 146 r2538 121396c
    Настройки программы : cabac=1/ref=3/deblock=1: -1: -1/analyse=0x3: 0x113/me=hex/subme=7/psy=1/psy_rd=1.00: 0.20/mixed_ref=1/me_range=16/chroma_me=1/trellis=1/8x8dct=1/cqm=0/deadzone=21, 11/fast_pskip=1/chroma_qp_offset=-3/threads=12/lookahead_threads=2/sliced_threads=0/nr=0/decimate=0/interlaced=0/bluray_compat=0/constrained_intra=0/bframes=3/b_pyramid=2/b_adapt=1/b_bias=0/direct=3/weightb=1/open_gop=0/weightp=2/keyint=250/keyint_min=25/scenecut=40/intra_refresh=0/rc_lookahead=40/rc=2pass/mbtree=1/bitrate=3400/ratetol=1.0/qcomp=0.60/qpmin=0/qpmax=69/qpstep=4/cplxblur=20.0/qblur=0.5/vbv_maxrate=14000/vbv_bufsize=14000/nal_hrd=none/filler=0/ip_ratio=1.40/aq=1: 1.00
    Default : Да
    Forced : Нет
    Аудио
    Идентификатор : 2
    Формат : PCM
    Идентификатор кодека : A_PCM/INT/LIT
    Продолжительность : 4 м. 8 с.
    Вид битрейта : Постоянный
    Битрейт : 1536 Кбит/сек
    Каналы : 2 канала
    Частота : 48, 0 КГц
    Частота кадров : 32, 003 кадра/сек (1500 SPF)
    Битовая глубина : 16 бит
    Размер потока : 45, 5 Мбайт (31%)
    Default : Да
    Forced : Нет
    Общее
    Уникальный идентификатор : 238524962934445256550345665980162935646 (0xB3723CA2DA36A61AA7EAB41CB4648B5E)
    Полное имя : E: \Турецкие клипы\Turkish clips from ALEXnROCK mkv disc 1\Turkish clips from ALEXnROCK mkv disc 1\017 Tarkan - Bu Gece ALEXnROCK.mkv
    Формат : Matroska
    Версия формата : Version 4/Version 2
    Размер файла : 136 Мбайт
    Продолжительность : 3 м. 50 с.
    Общий поток : 4938 Кбит/сек
    Дата кодирования : UTC 2017-07-04 14: 15: 27
    Программа кодирования : mkvmerge v9.8.0 (\\'Kuglblids\\') 64bit
    Библиотека кодирования : libebml v1.3.4 + libmatroska v1.4.5
    Видео
    Идентификатор : 1
    Формат : AVC
    Формат/Информация : Advanced Video Codec
    Профиль формата : High@L4
    Настройки формата : CABAC/4 Ref Frames
    Параметр CABAC формата : Да
    Параметр RefFrames формата : 4 кадра
    Идентификатор кодека : V_MPEG4/ISO/AVC
    Продолжительность : 3 м. 50 с.
    Битрейт : 3400 Кбит/сек
    Ширина : 1280 пикселей
    Высота : 880 пикселей
    Соотношение сторон : 3: 2
    Режим частоты кадров : Постоянный
    Частота кадров : 25, 000 кадров/сек
    Цветовое пространство : YUV
    Субдискретизация насыщенности : 4: 2: 0
    Битовая глубина : 8 бит
    Тип развёртки : Прогрессивная
    Бит/(Пиксели*Кадры) : 0.121
    Размер потока : 93, 7 Мбайт (69%)
    Библиотека кодирования : x264 core 146 r2538 121396c
    Настройки программы : cabac=1/ref=3/deblock=1: -1: -1/analyse=0x3: 0x113/me=hex/subme=7/psy=1/psy_rd=1.00: 0.20/mixed_ref=1/me_range=16/chroma_me=1/trellis=1/8x8dct=1/cqm=0/deadzone=21, 11/fast_pskip=1/chroma_qp_offset=-3/threads=12/lookahead_threads=2/sliced_threads=0/nr=0/decimate=0/interlaced=0/bluray_compat=0/constrained_intra=0/bframes=3/b_pyramid=2/b_adapt=1/b_bias=0/direct=3/weightb=1/open_gop=0/weightp=2/keyint=250/keyint_min=25/scenecut=40/intra_refresh=0/rc_lookahead=40/rc=2pass/mbtree=1/bitrate=3400/ratetol=1.0/qcomp=0.60/qpmin=0/qpmax=69/qpstep=4/cplxblur=20.0/qblur=0.5/vbv_maxrate=14000/vbv_bufsize=14000/nal_hrd=none/filler=0/ip_ratio=1.40/aq=1: 1.00
    Default : Да
    Forced : Нет
    Аудио
    Идентификатор : 2
    Формат : PCM
    Идентификатор кодека : A_PCM/INT/LIT
    Продолжительность : 3 м. 50 с.
    Вид битрейта : Постоянный
    Битрейт : 1536 Кбит/сек
    Каналы : 2 канала
    Частота : 48, 0 КГц
    Частота кадров : 32, 001 кадра/сек (1500 SPF)
    Битовая глубина : 16 бит
    Размер потока : 42, 2 Мбайт (31%)
    Default : Да
    Forced : Нет
    Общее
    Уникальный идентификатор : 241842169903732936568712623727435435759 (0xB5F11B91224B3457B2FA0479772DCEEF)
    Полное имя : E: \Турецкие клипы\Turkish clips from ALEXnROCK mkv disc 1\Turkish clips from ALEXnROCK mkv disc 1\018 Funda - Deli Et Beni ALEXnROCK.mkv
    Формат : Matroska
    Версия формата : Version 4/Version 2
    Размер файла : 122 Мбайт
    Продолжительность : 3 м. 26 с.
    Общий поток : 4942 Кбит/сек
    Дата кодирования : UTC 2017-07-29 23: 00: 59
    Программа кодирования : mkvmerge v9.8.0 (\\'Kuglblids\\') 64bit
    Библиотека кодирования : libebml v1.3.4 + libmatroska v1.4.5
    Видео
    Идентификатор : 1
    Формат : AVC
    Формат/Информация : Advanced Video Codec
    Профиль формата : High@L4
    Настройки формата : CABAC/4 Ref Frames
    Параметр CABAC формата : Да
    Параметр RefFrames формата : 4 кадра
    Идентификатор кодека : V_MPEG4/ISO/AVC
    Продолжительность : 3 м. 26 с.
    Битрейт : 3400 Кбит/сек
    Ширина : 1280 пикселей
    Высота : 576 пикселей
    Соотношение сторон : 2, 222
    Режим частоты кадров : Постоянный
    Частота кадров : 25, 000 кадров/сек
    Цветовое пространство : YUV
    Субдискретизация насыщенности : 4: 2: 0
    Битовая глубина : 8 бит
    Тип развёртки : Прогрессивная
    Бит/(Пиксели*Кадры) : 0.184
    Размер потока : 83, 8 Мбайт (69%)
    Библиотека кодирования : x264 core 146 r2538 121396c
    Настройки программы : cabac=1/ref=3/deblock=1: -1: -1/analyse=0x3: 0x113/me=hex/subme=7/psy=1/psy_rd=1.00: 0.20/mixed_ref=1/me_range=16/chroma_me=1/trellis=1/8x8dct=1/cqm=0/deadzone=21, 11/fast_pskip=1/chroma_qp_offset=-3/threads=12/lookahead_threads=2/sliced_threads=0/nr=0/decimate=0/interlaced=0/bluray_compat=0/constrained_intra=0/bframes=3/b_pyramid=2/b_adapt=1/b_bias=0/direct=3/weightb=1/open_gop=0/weightp=2/keyint=250/keyint_min=25/scenecut=40/intra_refresh=0/rc_lookahead=40/rc=2pass/mbtree=1/bitrate=3400/ratetol=1.0/qcomp=0.60/qpmin=0/qpmax=69/qpstep=4/cplxblur=20.0/qblur=0.5/vbv_maxrate=14000/vbv_bufsize=14000/nal_hrd=none/filler=0/ip_ratio=1.40/aq=1: 1.00
    Default : Да
    Forced : Нет
    Аудио
    Идентификатор : 2
    Формат : PCM
    Идентификатор кодека : A_PCM/INT/LIT
    Продолжительность : 3 м. 26 с.
    Вид битрейта : Постоянный
    Битрейт : 1536 Кбит/сек
    Каналы : 2 канала
    Частота : 48, 0 КГц
    Частота кадров : 32, 004 кадра/сек (1500 SPF)
    Битовая глубина : 16 бит
    Размер потока : 37, 8 Мбайт (31%)
    Default : Да
    Forced : Нет
    Общее
    Уникальный идентификатор : 245153171239257605586563865275550370243 (0xB86EC8894E3E64949B2226854E6389C3)
    Полное имя : E: \Турецкие клипы\Turkish clips from ALEXnROCK mkv disc 1\Turkish clips from ALEXnROCK mkv disc 1\019 Yalin - Cumhuriyet ALEXnROCK.mkv
    Формат : Matroska
    Версия формата : Version 4/Version 2
    Размер файла : 155 Мбайт
    Продолжительность : 4 м. 24 с.
    Общий поток : 4921 Кбит/сек
    Дата кодирования : UTC 2017-07-30 12: 22: 42
    Программа кодирования : mkvmerge v9.8.0 (\\'Kuglblids\\') 64bit
    Библиотека кодирования : libebml v1.3.4 + libmatroska v1.4.5
    Видео
    Идентификатор : 1
    Формат : AVC
    Формат/Информация : Advanced Video Codec
    Профиль формата : High@L4
    Настройки формата : CABAC/4 Ref Frames
    Параметр CABAC формата : Да
    Параметр RefFrames формата : 4 кадра
    Идентификатор кодека : V_MPEG4/ISO/AVC
    Продолжительность : 4 м. 23 с.
    Битрейт : 3400 Кбит/сек
    Ширина : 1280 пикселей
    Высота : 688 пикселей
    Соотношение сторон : 1, 85: 1
    Режим частоты кадров : Постоянный
    Частота кадров : 25, 000 кадров/сек
    Цветовое пространство : YUV
    Субдискретизация насыщенности : 4: 2: 0
    Битовая глубина : 8 бит
    Тип развёртки : Прогрессивная
    Бит/(Пиксели*Кадры) : 0.154
    Размер потока : 107 Мбайт (69%)
    Библиотека кодирования : x264 core 146 r2538 121396c
    Настройки программы : cabac=1/ref=3/deblock=1: -1: -1/analyse=0x3: 0x113/me=hex/subme=7/psy=1/psy_rd=1.00: 0.20/mixed_ref=1/me_range=16/chroma_me=1/trellis=1/8x8dct=1/cqm=0/deadzone=21, 11/fast_pskip=1/chroma_qp_offset=-3/threads=12/lookahead_threads=2/sliced_threads=0/nr=0/decimate=0/interlaced=0/bluray_compat=0/constrained_intra=0/bframes=3/b_pyramid=2/b_adapt=1/b_bias=0/direct=3/weightb=1/open_gop=0/weightp=2/keyint=250/keyint_min=25/scenecut=40/intra_refresh=0/rc_lookahead=40/rc=2pass/mbtree=1/bitrate=3400/ratetol=1.0/qcomp=0.60/qpmin=0/qpmax=69/qpstep=4/cplxblur=20.0/qblur=0.5/vbv_maxrate=14000/vbv_bufsize=14000/nal_hrd=none/filler=0/ip_ratio=1.40/aq=1: 1.00
    Default : Да
    Forced : Нет
    Аудио
    Идентификатор : 2
    Формат : PCM
    Идентификатор кодека : A_PCM/INT/LIT
    Продолжительность : 4 м. 24 с.
    Вид битрейта : Постоянный
    Битрейт : 1536 Кбит/сек
    Каналы : 2 канала
    Частота : 48, 0 КГц
    Частота кадров : 32, 002 кадра/сек (1500 SPF)
    Битовая глубина : 16 бит
    Размер потока : 48, 4 Мбайт (31%)
    Default : Да
    Forced : Нет
    Общее
    Уникальный идентификатор : 235525182257388505256376157862547207013 (0xB1308007A5821BF5A89A11993A38B365)
    Полное имя : E: \Турецкие клипы\Turkish clips from ALEXnROCK mkv disc 1\Turkish clips from ALEXnROCK mkv disc 1\020 Mustafa Sandal - Araba ALEXnROCK.mkv
    Формат : Matroska
    Версия формата : Version 4/Version 2
    Размер файла : 137 Мбайт
    Продолжительность : 3 м. 53 с.
    Общий поток : 4934 Кбит/сек
    Дата кодирования : UTC 2017-07-30 13: 38: 17
    Программа кодирования : mkvmerge v9.8.0 (\\'Kuglblids\\') 64bit
    Библиотека кодирования : libebml v1.3.4 + libmatroska v1.4.5
    Видео
    Идентификатор : 1
    Формат : AVC
    Формат/Информация : Advanced Video Codec
    Профиль формата : High@L4
    Настройки формата : CABAC/4 Ref Frames
    Параметр CABAC формата : Да
    Параметр RefFrames формата : 4 кадра
    Идентификатор кодека : V_MPEG4/ISO/AVC
    Продолжительность : 3 м. 53 с.
    Битрейт : 3400 Кбит/сек
    Ширина : 1280 пикселей
    Высота : 584 пикселя
    Соотношение сторон : 2, 2: 1
    Режим частоты кадров : Постоянный
    Частота кадров : 25, 000 кадров/сек
    Цветовое пространство : YUV
    Субдискретизация насыщенности : 4: 2: 0
    Битовая глубина : 8 бит
    Тип развёртки : Прогрессивная
    Бит/(Пиксели*Кадры) : 0.182
    Размер потока : 94, 7 Мбайт (69%)
    Библиотека кодирования : x264 core 146 r2538 121396c
    Настройки программы : cabac=1/ref=3/deblock=1: -1: -1/analyse=0x3: 0x113/me=hex/subme=7/psy=1/psy_rd=1.00: 0.20/mixed_ref=1/me_range=16/chroma_me=1/trellis=1/8x8dct=1/cqm=0/deadzone=21, 11/fast_pskip=1/chroma_qp_offset=-3/threads=12/lookahead_threads=2/sliced_threads=0/nr=0/decimate=0/interlaced=0/bluray_compat=0/constrained_intra=0/bframes=3/b_pyramid=2/b_adapt=1/b_bias=0/direct=3/weightb=1/open_gop=0/weightp=2/keyint=250/keyint_min=25/scenecut=40/intra_refresh=0/rc_lookahead=40/rc=2pass/mbtree=1/bitrate=3400/ratetol=1.0/qcomp=0.60/qpmin=0/qpmax=69/qpstep=4/cplxblur=20.0/qblur=0.5/vbv_maxrate=14000/vbv_bufsize=14000/nal_hrd=none/filler=0/ip_ratio=1.40/aq=1: 1.00
    Default : Да
    Forced : Нет
    Аудио
    Идентификатор : 2
    Формат : PCM
    Идентификатор кодека : A_PCM/INT/LIT
    Продолжительность : 3 м. 52 с.
    Вид битрейта : Постоянный
    Битрейт : 1536 Кбит/сек
    Каналы : 2 канала
    Частота : 48, 0 КГц
    Частота кадров : 32, 002 кадра/сек (1500 SPF)
    Битовая глубина : 16 бит
    Размер потока : 42, 5 Мбайт (31%)
    Default : Да
    Forced : Нет
    Общее
    Уникальный идентификатор : 184337600722649446312102346986023426043 (0x8AAE2169284C9B2190E7009BF76217FB)
    Полное имя : E: \Турецкие клипы\Turkish clips from ALEXnROCK mkv disc 1\Turkish clips from ALEXnROCK mkv disc 1\021 4 yuz - Salla ALEXnROCK.mkv
    Формат : Matroska
    Версия формата : Version 4/Version 2
    Размер файла : 111 Мбайт
    Продолжительность : 3 м. 8 с.
    Общий поток : 4943 Кбит/сек
    Дата кодирования : UTC 2017-07-30 12: 03: 50
    Программа кодирования : mkvmerge v9.8.0 (\\'Kuglblids\\') 64bit
    Библиотека кодирования : libebml v1.3.4 + libmatroska v1.4.5
    Видео
    Идентификатор : 1
    Формат : AVC
    Формат/Информация : Advanced Video Codec
    Профиль формата : High@L4
    Настройки формата : CABAC/4 Ref Frames
    Параметр CABAC формата : Да
    Параметр RefFrames формата : 4 кадра
    Идентификатор кодека : V_MPEG4/ISO/AVC
    Продолжительность : 3 м. 8 с.
    Битрейт : 3400 Кбит/сек
    Ширина : 1280 пикселей
    Высота : 624 пикселя
    Соотношение сторон : 2, 051
    Режим частоты кадров : Постоянный
    Частота кадров : 25, 000 кадров/сек
    Цветовое пространство : YUV
    Субдискретизация насыщенности : 4: 2: 0
    Битовая глубина : 8 бит
    Тип развёртки : Прогрессивная
    Бит/(Пиксели*Кадры) : 0.170
    Размер потока : 76, 6 Мбайт (69%)
    Библиотека кодирования : x264 core 146 r2538 121396c
    Настройки программы : cabac=1/ref=3/deblock=1: -1: -1/analyse=0x3: 0x113/me=hex/subme=7/psy=1/psy_rd=1.00: 0.20/mixed_ref=1/me_range=16/chroma_me=1/trellis=1/8x8dct=1/cqm=0/deadzone=21, 11/fast_pskip=1/chroma_qp_offset=-3/threads=12/lookahead_threads=2/sliced_threads=0/nr=0/decimate=0/interlaced=0/bluray_compat=0/constrained_intra=0/bframes=3/b_pyramid=2/b_adapt=1/b_bias=0/direct=3/weightb=1/open_gop=0/weightp=2/keyint=250/keyint_min=25/scenecut=40/intra_refresh=0/rc_lookahead=40/rc=2pass/mbtree=1/bitrate=3400/ratetol=1.0/qcomp=0.60/qpmin=0/qpmax=69/qpstep=4/cplxblur=20.0/qblur=0.5/vbv_maxrate=14000/vbv_bufsize=14000/nal_hrd=none/filler=0/ip_ratio=1.40/aq=1: 1.00
    Default : Да
    Forced : Нет
    Аудио
    Идентификатор : 2
    Формат : PCM
    Идентификатор кодека : A_PCM/INT/LIT
    Продолжительность : 3 м. 7 с.
    Вид битрейта : Постоянный
    Битрейт : 1536 Кбит/сек
    Каналы : 2 канала
    Частота : 48, 0 КГц
    Частота кадров : 32, 005 кадра/сек (1500 SPF)
    Битовая глубина : 16 бит
    Размер потока : 34, 3 Мбайт (31%)
    Default : Да
    Forced : Нет
    Общее
    Уникальный идентификатор : 194074513847363325807466282177748928145 (0x9201644AC8890C2DB77A9999022E0691)
    Полное имя : E: \Турецкие клипы\Turkish clips from ALEXnROCK mkv disc 1\Turkish clips from ALEXnROCK mkv disc 1\022 Emir - Bi\\' Agla ALEXnROCK.mkv
    Формат : Matroska
    Версия формата : Version 4/Version 2
    Размер файла : 134 Мбайт
    Продолжительность : 3 м. 47 с.
    Общий поток : 4934 Кбит/сек
    Дата кодирования : UTC 2017-07-30 11: 49: 42
    Программа кодирования : mkvmerge v9.8.0 (\\'Kuglblids\\') 64bit
    Библиотека кодирования : libebml v1.3.4 + libmatroska v1.4.5
    Видео
    Идентификатор : 1
    Формат : AVC
    Формат/Информация : Advanced Video Codec
    Профиль формата : High@L4
    Настройки формата : CABAC/4 Ref Frames
    Параметр CABAC формата : Да
    Параметр RefFrames формата : 4 кадра
    Идентификатор кодека : V_MPEG4/ISO/AVC
    Продолжительность : 3 м. 47 с.
    Битрейт : 3400 Кбит/сек
    Ширина : 1280 пикселей
    Высота : 608 пикселей
    Соотношение сторон : 2, 105
    Режим частоты кадров : Постоянный
    Частота кадров : 25, 000 кадров/сек
    Цветовое пространство : YUV
    Субдискретизация насыщенности : 4: 2: 0
    Битовая глубина : 8 бит
    Тип развёртки : Прогрессивная
    Бит/(Пиксели*Кадры) : 0.175
    Размер потока : 92, 4 Мбайт (69%)
    Библиотека кодирования : x264 core 146 r2538 121396c
    Настройки программы : cabac=1/ref=3/deblock=1: -1: -1/analyse=0x3: 0x113/me=hex/subme=7/psy=1/psy_rd=1.00: 0.20/mixed_ref=1/me_range=16/chroma_me=1/trellis=1/8x8dct=1/cqm=0/deadzone=21, 11/fast_pskip=1/chroma_qp_offset=-3/threads=12/lookahead_threads=2/sliced_threads=0/nr=0/decimate=0/interlaced=0/bluray_compat=0/constrained_intra=0/bframes=3/b_pyramid=2/b_adapt=1/b_bias=0/direct=3/weightb=1/open_gop=0/weightp=2/keyint=250/keyint_min=25/scenecut=40/intra_refresh=0/rc_lookahead=40/rc=2pass/mbtree=1/bitrate=3400/ratetol=1.0/qcomp=0.60/qpmin=0/qpmax=69/qpstep=4/cplxblur=20.0/qblur=0.5/vbv_maxrate=14000/vbv_bufsize=14000/nal_hrd=none/filler=0/ip_ratio=1.40/aq=1: 1.00
    Default : Да
    Forced : Нет
    Аудио
    Идентификатор : 2
    Формат : PCM
    Идентификатор кодека : A_PCM/INT/LIT
    Продолжительность : 3 м. 47 с.
    Вид битрейта : Постоянный
    Битрейт : 1536 Кбит/сек
    Каналы : 2 канала
    Частота : 48, 0 КГц
    Частота кадров : 32, 000 кадра/сек (1500 SPF)
    Битовая глубина : 16 бит
    Размер потока : 41, 6 Мбайт (31%)
    Default : Да
    Forced : Нет
    Общее
    Уникальный идентификатор : 178249375097336689013895515303761260717 (0x861994B64F515C04A5FFB20D3851B0AD)
    Полное имя : E: \Турецкие клипы\Turkish clips from ALEXnROCK mkv disc 1\Turkish clips from ALEXnROCK mkv disc 1\023 Emre Altug - Kapis kapis ALEXnROCK.mkv
    Формат : Matroska
    Версия формата : Version 4/Version 2
    Размер файла : 164 Мбайт
    Продолжительность : 4 м. 39 с.
    Общий поток : 4932 Кбит/сек
    Дата кодирования : UTC 2017-07-30 20: 02: 24
    Программа кодирования : mkvmerge v9.8.0 (\\'Kuglblids\\') 64bit
    Библиотека кодирования : libebml v1.3.4 + libmatroska v1.4.5
    Видео
    Идентификатор : 1
    Формат : AVC
    Формат/Информация : Advanced Video Codec
    Профиль формата : High@L4
    Настройки формата : CABAC/4 Ref Frames
    Параметр CABAC формата : Да
    Параметр RefFrames формата : 4 кадра
    Идентификатор кодека : V_MPEG4/ISO/AVC
    Продолжительность : 4 м. 39 с.
    Битрейт : 3400 Кбит/сек
    Ширина : 1280 пикселей
    Высота : 720 пикселей
    Соотношение сторон : 16: 9
    Режим частоты кадров : Постоянный
    Частота кадров : 25, 000 кадров/сек
    Цветовое пространство : YUV
    Субдискретизация насыщенности : 4: 2: 0
    Битовая глубина : 8 бит
    Тип развёртки : Прогрессивная
    Бит/(Пиксели*Кадры) : 0.148
    Размер потока : 113 Мбайт (69%)
    Библиотека кодирования : x264 core 146 r2538 121396c
    Настройки программы : cabac=1/ref=3/deblock=1: -1: -1/analyse=0x3: 0x113/me=hex/subme=7/psy=1/psy_rd=1.00: 0.20/mixed_ref=1/me_range=16/chroma_me=1/trellis=1/8x8dct=1/cqm=0/deadzone=21, 11/fast_pskip=1/chroma_qp_offset=-3/threads=12/lookahead_threads=2/sliced_threads=0/nr=0/decimate=0/interlaced=0/bluray_compat=0/constrained_intra=0/bframes=3/b_pyramid=2/b_adapt=1/b_bias=0/direct=3/weightb=1/open_gop=0/weightp=2/keyint=250/keyint_min=25/scenecut=40/intra_refresh=0/rc_lookahead=40/rc=2pass/mbtree=1/bitrate=3400/ratetol=1.0/qcomp=0.60/qpmin=0/qpmax=69/qpstep=4/cplxblur=20.0/qblur=0.5/vbv_maxrate=14000/vbv_bufsize=14000/nal_hrd=none/filler=0/ip_ratio=1.40/aq=1: 1.00
    Default : Да
    Forced : Нет
    Аудио
    Идентификатор : 2
    Формат : PCM
    Идентификатор кодека : A_PCM/INT/LIT
    Продолжительность : 4 м. 38 с.
    Вид битрейта : Постоянный
    Битрейт : 1536 Кбит/сек
    Каналы : 2 канала
    Частота : 48, 0 КГц
    Частота кадров : 32, 003 кадра/сек (1500 SPF)
    Битовая глубина : 16 бит
    Размер потока : 50, 9 Мбайт (31%)
    Default : Да
    Forced : Нет
    Общее
    Уникальный идентификатор : 232652302333830378001875121636200474860 (0xAF07341D2212008FB77043557AA0E8EC)
    Полное имя : E: \Турецкие клипы\Turkish clips from ALEXnROCK mkv disc 1\Turkish clips from ALEXnROCK mkv disc 1\024 Gulsen - Irgalamaz Beni ALEXnROCK.mkv
    Формат : Matroska
    Версия формата : Version 4/Version 2
    Размер файла : 130 Мбайт
    Продолжительность : 3 м. 41 с.
    Общий поток : 4929 Кбит/сек
    Дата кодирования : UTC 2017-07-30 15: 22: 16
    Программа кодирования : mkvmerge v9.8.0 (\\'Kuglblids\\') 64bit
    Библиотека кодирования : libebml v1.3.4 + libmatroska v1.4.5
    Видео
    Идентификатор : 1
    Формат : AVC
    Формат/Информация : Advanced Video Codec
    Профиль формата : High@L4
    Настройки формата : CABAC/4 Ref Frames
    Параметр CABAC формата : Да
    Параметр RefFrames формата : 4 кадра
    Идентификатор кодека : V_MPEG4/ISO/AVC
    Продолжительность : 3 м. 41 с.
    Битрейт : 3400 Кбит/сек
    Ширина : 1280 пикселей
    Высота : 720 пикселей
    Соотношение сторон : 16: 9
    Режим частоты кадров : Постоянный
    Частота кадров : 25, 000 кадров/сек
    Цветовое пространство : YUV
    Субдискретизация насыщенности : 4: 2: 0
    Битовая глубина : 8 бит
    Тип развёртки : Прогрессивная
    Бит/(Пиксели*Кадры) : 0.148
    Размер потока : 90, 1 Мбайт (69%)
    Библиотека кодирования : x264 core 146 r2538 121396c
    Настройки программы : cabac=1/ref=3/deblock=1: -1: -1/analyse=0x3: 0x113/me=hex/subme=7/psy=1/psy_rd=1.00: 0.20/mixed_ref=1/me_range=16/chroma_me=1/trellis=1/8x8dct=1/cqm=0/deadzone=21, 11/fast_pskip=1/chroma_qp_offset=-3/threads=12/lookahead_threads=2/sliced_threads=0/nr=0/deci
    загрузка...
    Рейтинг →
     (голосов: 1, оценка 4/5, голосовать можно 1 раз )

    Другие торренты по теме:

  • Сборник клипов - Русский Рок от ALEXnROCK (2017) WEBRip (H.264 / 720p-LQ) (часть 1)
  • Сборник клипов - Best Hits 80 от ALEXnROCK (2017) WEB-Rip (H.264 / 720p-LQ) (часть 1)
  • Сборник клипов - Reggae от ALEXnROCK (2017) WEBRip (H.264 / 720p-LQ) (часть 1)
  • Чи-Ли - Сборник клипов (2005-2015) DVDRip WebRip
  • Сборник клипов - Philizz "Video YearMix" (2015) HDTV [1080p]
  • Сборник клипов - Philizz "Tropical Summer" (2016) HDTV [1080p]
  • Сборник клипов - Philizz "I covered the 80s" (season 1, episode 1-5) (2016) WEB-DLRip [H.264 / 720-LQ]
  • Сборник клипов - Philizz "Video Yearmix" (2016) HDTV [AVC / 1080p]


    • Комментарии (0):

      Информация

      Информация

        Посетители, находящиеся в группе Гости, не могут оставлять комментарии в данной новости.

        ↓ Меню




        ↓ Опрос

        Вы добавили сайт в закладки?
        Да
        Нет


        Top 10 за месяц (Другое)