.
Авторизация | Регистрация
Хочешь лучшие торренты? Добавь свой email!
Добавить

Торрент скачать бесплатно

» » Сборник клипов - Русские клипы от ALEXnROCK (2017) WEB-Rip (H.264 / 720p-LQ) (часть 1) торрент скачать бесплатно




    Сборник клипов - Русские клипы от ALEXnROCK (2017) WEB-Rip (H.264 / 720p-LQ) (часть 1) торрент скачать бесплатно

    Опубликовал: Админ | Дата: 6-10-2017, 05:00 | Просмотров: 0

    Название: Русские клипы от ALEXnROCK часть 1
    Год выхода: 2017
    Жанр: Pop

    Описание

    В современной популярной музыке есть два направления, попса и поп музыка. К попсе относится примитивная клубная траляляйка и тому подобная шляпа, для тех у кого нет слуха, лишь бы было много голых задниц и тыц-тыц бум-бум и погромче). Поп музыка более интереснее и глубже со своей музыкальной гармонией, а в некоторых и смысл можно найти, для тех у кого есть вкус и кто любит качественное творчество. В этот сборник я включил самые достойные и хитовые поп клипы от музыкантов с постсоветского пространства с 2000 по 2016 год. Это 1 часть сборника. Смотрите, слушайте и наслаждайтесь. Все лучшее для вас. ALEXnROCK
    Ремастеринг видео, звук заменил на CD
    Продолжительность: 03: 45: 54
    Качество видео: DVDRip
    Видео: AVC/H.264, 1280x612-720 (16x9) 1280x864-896(4x3), 25-29fps, 3400kbps
    Аудио: 48000Hz, PCM, 2 ch, 1536kbps
    Треклист:
    000 Интро
    001 ВИА Гра и Валерий Меладзе - Океан и три реки
    002 Филипп Киркоров - Килиманжаро
    003 Жанна Фриске - А на море белый песок
    004 Градусы - Кто ты
    005 Корни - Вика
    006 Инь-Ян - Сохрани меня
    007 Валерия - Капелькою
    008 Иракли - Лондон-Париж
    009 Банд\\'Эрос - Не зарекайся
    010 Эд Шульжевский - Она и он
    011 ВИА Гра - Биология
    012 МакSим - Научусь летать
    013 Dj.Smash - Волна (feat Fast Food)
    014 Паскаль - Шелковое сердце
    015 Глюкоза - Ой, ой
    016 Чай вдвоем - День рождения
    017 Шпильки - Стерва
    018 A`Studio - Fashion girl
    019 Инь-Ян - Камикадзе
    020 Леонид Агутин Отпетые мошенники - Граница
    021 Батырхан Шукенов - Твои шаги
    022 Тутси - Чашка капуччино
    023 Иракли - Так не бывает
    024 София Ротару - Я же его любила
    025 Банд\\'Эрос - Каламбия Пикчерз не представляет
    026 Дима Билан - Невозможное Возможно
    027 Виктория Дайнеко - Я просто сразу от тебя уйду
    028 Блестящие Arash - Восточные сказки
    029 Корни - 25-й этаж
    030 5sta Family - Зачем
    031 ВИА Гра - Ой Говорила Чиста Вода
    032 Александр Рыбак - Я не верю в чудеса
    033 Потап и Настя Каменских - Не пара
    034 Челси - Крылья
    035 Жанна Фриске - Ла-ла-ла
    036 Глюкоза - Свадьба
    037 Дима Билан - Я Тебя Помню
    038 Эд Шульжевский - Синий вечер
    039 Чай вдвоем - Просто друг
    040 МакSим - На Радиоволнах
    041 Филипп Киркоров - Огонь и вода
    042 Чили - Сердце
    043 Зара - Для неё
    044 ВИА Гра - My emancipation
    045 Dino MC47 feat Иракли - Сделай шаг
    046 A`Studio - Улетаю
    047 Шпильки - Маленькая штучка
    048 Слава - Попутчица
    049 Григории? Лепс Тимати feat - Лондон
    050 Вера Брежнева Dan Balan - Лепестками слез
    051 Банд\\'Эрос - Про красивую жизнь
    052 Премьер Министр - Давай попробуем вернуть
    053 А.Маршалл В.Дайнеко - Снилось мне
    054 Город 312 П.Воля - Мама, мы все стареем
    055 Инфинити - Когда уйдешь
    056 Паскаль - 100% любви
    057 Дмитрий Колдун - Царевна
    058 Тутси - Самый, самый
    059 Тимати Dj.Smash - Моя Москва
    060 Бьянка - Спаси

    Общее
    Уникальный идентификатор : 238737407429642050562149733674272864373 (0xB39B26F55C6D0D39A0A9071B00BAB875)
    Полное имя : E: \Сборник русских клипов\mkv\Русские клипы от ALEXnROCK часть 1 mkv\Русские клипы от ALEXnROCK mkv Диск 1\000 Интро ALEXnROCK.mkv
    Формат : Matroska
    Версия формата : Version 4/Version 2
    Размер файла : 28, 4 Мбайт
    Продолжительность : 49 с. 316 мс.
    Общий поток : 4829 Кбит/сек
    Дата кодирования : UTC 2017-07-28 15: 53: 46
    Программа кодирования : mkvmerge v9.8.0 (\\'Kuglblids\\') 64bit
    Библиотека кодирования : libebml v1.3.4 + libmatroska v1.4.5
    Видео
    Идентификатор : 1
    Формат : AVC
    Формат/Информация : Advanced Video Codec
    Профиль формата : High@L4
    Настройки формата : CABAC/4 Ref Frames
    Параметр CABAC формата : Да
    Параметр RefFrames формата : 4 кадра
    Идентификатор кодека : V_MPEG4/ISO/AVC
    Продолжительность : 49 с. 316 мс.
    Битрейт : 3400 Кбит/сек
    Ширина : 1280 пикселей
    Высота : 720 пикселей
    Соотношение сторон : 16: 9
    Режим частоты кадров : Постоянный
    Частота кадров : 29, 970 (30000/1001) кадров/сек
    Частота кадров в оригинале : 29, 970 (29970/1000) кадров/сек
    Цветовое пространство : YUV
    Субдискретизация насыщенности : 4: 2: 0
    Битовая глубина : 8 бит
    Тип развёртки : Прогрессивная
    Бит/(Пиксели*Кадры) : 0.123
    Размер потока : 19, 4 Мбайт (68%)
    Библиотека кодирования : x264 core 146 r2538 121396c
    Настройки программы : cabac=1/ref=3/deblock=1: -1: -1/analyse=0x3: 0x113/me=hex/subme=7/psy=1/psy_rd=1.00: 0.20/mixed_ref=1/me_range=16/chroma_me=1/trellis=1/8x8dct=1/cqm=0/deadzone=21, 11/fast_pskip=1/chroma_qp_offset=-3/threads=12/lookahead_threads=2/sliced_threads=0/nr=0/decimate=0/interlaced=0/bluray_compat=0/constrained_intra=0/bframes=3/b_pyramid=2/b_adapt=1/b_bias=0/direct=3/weightb=1/open_gop=0/weightp=2/keyint=250/keyint_min=25/scenecut=40/intra_refresh=0/rc_lookahead=40/rc=2pass/mbtree=1/bitrate=3400/ratetol=1.0/qcomp=0.60/qpmin=0/qpmax=69/qpstep=4/cplxblur=20.0/qblur=0.5/vbv_maxrate=14000/vbv_bufsize=14000/nal_hrd=none/filler=0/ip_ratio=1.40/aq=1: 1.00
    Default : Да
    Forced : Нет
    Аудио
    Идентификатор : 2
    Формат : PCM
    Идентификатор кодека : A_PCM/INT/LIT
    Продолжительность : 48 с. 932 мс.
    Вид битрейта : Постоянный
    Битрейт : 1536 Кбит/сек
    Каналы : 2 канала
    Частота : 48, 0 КГц
    Частота кадров : 32, 004 кадра/сек (1500 SPF)
    Битовая глубина : 16 бит
    Размер потока : 8, 96 Мбайт (32%)
    Default : Да
    Forced : Нет
    Общее
    Уникальный идентификатор : 227249430278448255780200618926306052978 (0xAAF6A5F47C9561F69E329AB3B3C14B72)
    Полное имя : E: \Сборник русских клипов\mkv\Русские клипы от ALEXnROCK часть 1 mkv\Русские клипы от ALEXnROCK mkv Диск 1\001 ВИА Гра и Валерий Меладзе - Океан и три реки ALEXnROCK.mkv
    Формат : Matroska
    Версия формата : Version 4/Version 2
    Размер файла : 137 Мбайт
    Продолжительность : 3 м. 52 с.
    Общий поток : 4940 Кбит/сек
    Дата кодирования : UTC 2017-03-17 11: 33: 46
    Программа кодирования : mkvmerge v9.8.0 (\\'Kuglblids\\') 64bit
    Библиотека кодирования : libebml v1.3.4 + libmatroska v1.4.5
    Видео
    Идентификатор : 1
    Формат : AVC
    Формат/Информация : Advanced Video Codec
    Профиль формата : High@L4
    Настройки формата : CABAC/4 Ref Frames
    Параметр CABAC формата : Да
    Параметр RefFrames формата : 4 кадра
    Идентификатор кодека : V_MPEG4/ISO/AVC
    Продолжительность : 3 м. 52 с.
    Битрейт : 3401 Кбит/сек
    Ширина : 1280 пикселей
    Высота : 904 пикселя
    Соотношение сторон : 1, 416
    Режим частоты кадров : Постоянный
    Частота кадров : 25, 000 кадров/сек
    Цветовое пространство : YUV
    Субдискретизация насыщенности : 4: 2: 0
    Битовая глубина : 8 бит
    Тип развёртки : Прогрессивная
    Бит/(Пиксели*Кадры) : 0.118
    Размер потока : 94, 3 Мбайт (69%)
    Библиотека кодирования : x264 core 146 r2538 121396c
    Настройки программы : cabac=1/ref=3/deblock=1: -1: -1/analyse=0x3: 0x113/me=hex/subme=7/psy=1/psy_rd=1.00: 0.20/mixed_ref=1/me_range=16/chroma_me=1/trellis=1/8x8dct=1/cqm=0/deadzone=21, 11/fast_pskip=1/chroma_qp_offset=-3/threads=12/lookahead_threads=2/sliced_threads=0/nr=0/decimate=0/interlaced=0/bluray_compat=0/constrained_intra=0/bframes=3/b_pyramid=2/b_adapt=1/b_bias=0/direct=3/weightb=1/open_gop=0/weightp=2/keyint=250/keyint_min=25/scenecut=40/intra_refresh=0/rc_lookahead=40/rc=2pass/mbtree=1/bitrate=3401/ratetol=1.0/qcomp=0.60/qpmin=0/qpmax=69/qpstep=4/cplxblur=20.0/qblur=0.5/vbv_maxrate=14000/vbv_bufsize=14000/nal_hrd=none/filler=0/ip_ratio=1.40/aq=1: 1.00
    Default : Да
    Forced : Нет
    Аудио
    Идентификатор : 2
    Формат : PCM
    Идентификатор кодека : A_PCM/INT/LIT
    Продолжительность : 3 м. 52 с.
    Вид битрейта : Постоянный
    Битрейт : 1536 Кбит/сек
    Каналы : 2 канала
    Частота : 48, 0 КГц
    Частота кадров : 32, 004 кадра/сек (1500 SPF)
    Битовая глубина : 16 бит
    Размер потока : 42, 6 Мбайт (31%)
    Default : Да
    Forced : Нет
    Общее
    Уникальный идентификатор : 252167061061316283691549721039166929494 (0xBDB59C00E45C5626A9846CF692E67A56)
    Полное имя : E: \Сборник русских клипов\mkv\Русские клипы от ALEXnROCK часть 1 mkv\Русские клипы от ALEXnROCK mkv Диск 1\002 Филипп Киркоров - Килиманжаро ALEXnROCK.mkv
    Формат : Matroska
    Версия формата : Version 4/Version 2
    Размер файла : 125 Мбайт
    Продолжительность : 3 м. 32 с.
    Общий поток : 4940 Кбит/сек
    Дата кодирования : UTC 2017-05-05 10: 52: 26
    Программа кодирования : mkvmerge v9.8.0 (\\'Kuglblids\\') 64bit
    Библиотека кодирования : libebml v1.3.4 + libmatroska v1.4.5
    Видео
    Идентификатор : 1
    Формат : AVC
    Формат/Информация : Advanced Video Codec
    Профиль формата : High@L4
    Настройки формата : CABAC/4 Ref Frames
    Параметр CABAC формата : Да
    Параметр RefFrames формата : 4 кадра
    Идентификатор кодека : V_MPEG4/ISO/AVC
    Продолжительность : 3 м. 32 с.
    Битрейт : 3401 Кбит/сек
    Ширина : 1280 пикселей
    Высота : 720 пикселей
    Соотношение сторон : 16: 9
    Режим частоты кадров : Постоянный
    Частота кадров : 25, 000 кадров/сек
    Цветовое пространство : YUV
    Субдискретизация насыщенности : 4: 2: 0
    Битовая глубина : 8 бит
    Тип развёртки : Прогрессивная
    Бит/(Пиксели*Кадры) : 0.148
    Размер потока : 86, 3 Мбайт (69%)
    Библиотека кодирования : x264 core 146 r2538 121396c
    Настройки программы : cabac=1/ref=3/deblock=1: -1: -1/analyse=0x3: 0x113/me=hex/subme=7/psy=1/psy_rd=1.00: 0.20/mixed_ref=1/me_range=16/chroma_me=1/trellis=1/8x8dct=1/cqm=0/deadzone=21, 11/fast_pskip=1/chroma_qp_offset=-3/threads=12/lookahead_threads=2/sliced_threads=0/nr=0/decimate=0/interlaced=0/bluray_compat=0/constrained_intra=0/bframes=3/b_pyramid=2/b_adapt=1/b_bias=0/direct=3/weightb=1/open_gop=0/weightp=2/keyint=250/keyint_min=25/scenecut=40/intra_refresh=0/rc_lookahead=40/rc=2pass/mbtree=1/bitrate=3401/ratetol=1.0/qcomp=0.60/qpmin=0/qpmax=69/qpstep=4/cplxblur=20.0/qblur=0.5/vbv_maxrate=14000/vbv_bufsize=14000/nal_hrd=none/filler=0/ip_ratio=1.40/aq=1: 1.00
    Default : Да
    Forced : Нет
    Аудио
    Идентификатор : 2
    Формат : PCM
    Идентификатор кодека : A_PCM/INT/LIT
    Продолжительность : 3 м. 32 с.
    Вид битрейта : Постоянный
    Битрейт : 1536 Кбит/сек
    Каналы : 2 канала
    Частота : 48, 0 КГц
    Частота кадров : 32, 003 кадра/сек (1500 SPF)
    Битовая глубина : 16 бит
    Размер потока : 39, 0 Мбайт (31%)
    Default : Да
    Forced : Нет
    Общее
    Уникальный идентификатор : 220666472464351049053010840300558657003 (0xA602D11385C1B71299543321AB62A5EB)
    Полное имя : E: \Сборник русских клипов\mkv\Русские клипы от ALEXnROCK часть 1 mkv\Русские клипы от ALEXnROCK mkv Диск 1\003 Жанна Фриске - А на море белый песок ALEXnROCK.mkv
    Формат : Matroska
    Версия формата : Version 4/Version 2
    Размер файла : 134 Мбайт
    Продолжительность : 3 м. 47 с.
    Общий поток : 4936 Кбит/сек
    Дата кодирования : UTC 2017-06-01 12: 20: 56
    Программа кодирования : mkvmerge v9.8.0 (\\'Kuglblids\\') 64bit
    Библиотека кодирования : libebml v1.3.4 + libmatroska v1.4.5
    Видео
    Идентификатор : 1
    Формат : AVC
    Формат/Информация : Advanced Video Codec
    Профиль формата : High@L4
    Настройки формата : CABAC/4 Ref Frames
    Параметр CABAC формата : Да
    Параметр RefFrames формата : 4 кадра
    Идентификатор кодека : V_MPEG4/ISO/AVC
    Продолжительность : 3 м. 47 с.
    Битрейт : 3401 Кбит/сек
    Ширина : 1280 пикселей
    Высота : 720 пикселей
    Соотношение сторон : 16: 9
    Режим частоты кадров : Постоянный
    Частота кадров : 25, 000 кадров/сек
    Цветовое пространство : YUV
    Субдискретизация насыщенности : 4: 2: 0
    Битовая глубина : 8 бит
    Тип развёртки : Прогрессивная
    Бит/(Пиксели*Кадры) : 0.148
    Размер потока : 92, 1 Мбайт (69%)
    Библиотека кодирования : x264 core 146 r2538 121396c
    Настройки программы : cabac=1/ref=3/deblock=1: -1: -1/analyse=0x3: 0x113/me=hex/subme=7/psy=1/psy_rd=1.00: 0.20/mixed_ref=1/me_range=16/chroma_me=1/trellis=1/8x8dct=1/cqm=0/deadzone=21, 11/fast_pskip=1/chroma_qp_offset=-3/threads=12/lookahead_threads=2/sliced_threads=0/nr=0/decimate=0/interlaced=0/bluray_compat=0/constrained_intra=0/bframes=3/b_pyramid=2/b_adapt=1/b_bias=0/direct=3/weightb=1/open_gop=0/weightp=2/keyint=250/keyint_min=25/scenecut=40/intra_refresh=0/rc_lookahead=40/rc=2pass/mbtree=1/bitrate=3401/ratetol=1.0/qcomp=0.60/qpmin=0/qpmax=69/qpstep=4/cplxblur=20.0/qblur=0.5/vbv_maxrate=14000/vbv_bufsize=14000/nal_hrd=none/filler=0/ip_ratio=1.40/aq=1: 1.00
    Default : Да
    Forced : Нет
    Аудио
    Идентификатор : 2
    Формат : PCM
    Идентификатор кодека : A_PCM/INT/LIT
    Продолжительность : 3 м. 47 с.
    Вид битрейта : Постоянный
    Битрейт : 1536 Кбит/сек
    Каналы : 2 канала
    Частота : 48, 0 КГц
    Частота кадров : 32, 004 кадра/сек (1500 SPF)
    Битовая глубина : 16 бит
    Размер потока : 41, 6 Мбайт (31%)
    Default : Да
    Forced : Нет
    Общее
    Уникальный идентификатор : 205905381897072359320415909091959731093 (0x9AE7EF1F405168E7AB56F033747D7395)
    Полное имя : E: \Сборник русских клипов\mkv\Русские клипы от ALEXnROCK часть 1 mkv\Русские клипы от ALEXnROCK mkv Диск 1\004 Градусы - Кто ты ALEXnROCK.mkv
    Формат : Matroska
    Версия формата : Version 4/Version 2
    Размер файла : 126 Мбайт
    Продолжительность : 3 м. 35 с.
    Общий поток : 4899 Кбит/сек
    Дата кодирования : UTC 2017-05-06 12: 36: 16
    Программа кодирования : mkvmerge v9.8.0 (\\'Kuglblids\\') 64bit
    Библиотека кодирования : libebml v1.3.4 + libmatroska v1.4.5
    Видео
    Идентификатор : 1
    Формат : AVC
    Формат/Информация : Advanced Video Codec
    Профиль формата : High@L4
    Настройки формата : CABAC/4 Ref Frames
    Параметр CABAC формата : Да
    Параметр RefFrames формата : 4 кадра
    Идентификатор кодека : V_MPEG4/ISO/AVC
    Продолжительность : 3 м. 35 с.
    Битрейт : 3401 Кбит/сек
    Ширина : 1280 пикселей
    Высота : 696 пикселей
    Соотношение сторон : 1, 85: 1
    Режим частоты кадров : Постоянный
    Частота кадров : 25, 000 кадров/сек
    Цветовое пространство : YUV
    Субдискретизация насыщенности : 4: 2: 0
    Битовая глубина : 8 бит
    Тип развёртки : Прогрессивная
    Бит/(Пиксели*Кадры) : 0.153
    Размер потока : 87, 5 Мбайт (70%)
    Библиотека кодирования : x264 core 146 r2538 121396c
    Настройки программы : cabac=1/ref=3/deblock=1: -1: -1/analyse=0x3: 0x113/me=hex/subme=7/psy=1/psy_rd=1.00: 0.20/mixed_ref=1/me_range=16/chroma_me=1/trellis=1/8x8dct=1/cqm=0/deadzone=21, 11/fast_pskip=1/chroma_qp_offset=-3/threads=12/lookahead_threads=2/sliced_threads=0/nr=0/decimate=0/interlaced=0/bluray_compat=0/constrained_intra=0/bframes=3/b_pyramid=2/b_adapt=1/b_bias=0/direct=3/weightb=1/open_gop=0/weightp=2/keyint=250/keyint_min=25/scenecut=40/intra_refresh=0/rc_lookahead=40/rc=2pass/mbtree=1/bitrate=3401/ratetol=1.0/qcomp=0.60/qpmin=0/qpmax=69/qpstep=4/cplxblur=20.0/qblur=0.5/vbv_maxrate=14000/vbv_bufsize=14000/nal_hrd=none/filler=0/ip_ratio=1.40/aq=1: 1.00
    Default : Да
    Forced : Нет
    Аудио
    Идентификатор : 2
    Формат : PCM
    Идентификатор кодека : A_PCM/INT/LIT
    Продолжительность : 3 м. 29 с.
    Вид битрейта : Постоянный
    Битрейт : 1536 Кбит/сек
    Каналы : 2 канала
    Частота : 48, 0 КГц
    Частота кадров : 32, 003 кадра/сек (1500 SPF)
    Битовая глубина : 16 бит
    Размер потока : 38, 3 Мбайт (30%)
    Default : Да
    Forced : Нет
    Общее
    Уникальный идентификатор : 184160444885190311305955905337732193024 (0x8A8C02F420E9D06797471D3576F15B00)
    Полное имя : E: \Сборник русских клипов\mkv\Русские клипы от ALEXnROCK часть 1 mkv\Русские клипы от ALEXnROCK mkv Диск 1\005 Корни - Вика ALEXnROCK.mkv
    Формат : Matroska
    Версия формата : Version 4/Version 2
    Размер файла : 108 Мбайт
    Продолжительность : 3 м. 4 с.
    Общий поток : 4936 Кбит/сек
    Дата кодирования : UTC 2017-05-06 14: 34: 24
    Программа кодирования : mkvmerge v9.8.0 (\\'Kuglblids\\') 64bit
    Библиотека кодирования : libebml v1.3.4 + libmatroska v1.4.5
    Видео
    Идентификатор : 1
    Формат : AVC
    Формат/Информация : Advanced Video Codec
    Профиль формата : High@L4
    Настройки формата : CABAC/4 Ref Frames
    Параметр CABAC формата : Да
    Параметр RefFrames формата : 4 кадра
    Идентификатор кодека : V_MPEG4/ISO/AVC
    Продолжительность : 3 м. 3 с.
    Битрейт : 3401 Кбит/сек
    Ширина : 1280 пикселей
    Высота : 720 пикселей
    Соотношение сторон : 16: 9
    Режим частоты кадров : Постоянный
    Частота кадров : 25, 000 кадров/сек
    Цветовое пространство : YUV
    Субдискретизация насыщенности : 4: 2: 0
    Битовая глубина : 8 бит
    Тип развёртки : Прогрессивная
    Бит/(Пиксели*Кадры) : 0.148
    Размер потока : 74, 6 Мбайт (69%)
    Библиотека кодирования : x264 core 146 r2538 121396c
    Настройки программы : cabac=1/ref=3/deblock=1: -1: -1/analyse=0x3: 0x113/me=hex/subme=7/psy=1/psy_rd=1.00: 0.20/mixed_ref=1/me_range=16/chroma_me=1/trellis=1/8x8dct=1/cqm=0/deadzone=21, 11/fast_pskip=1/chroma_qp_offset=-3/threads=12/lookahead_threads=2/sliced_threads=0/nr=0/decimate=0/interlaced=0/bluray_compat=0/constrained_intra=0/bframes=3/b_pyramid=2/b_adapt=1/b_bias=0/direct=3/weightb=1/open_gop=0/weightp=2/keyint=250/keyint_min=25/scenecut=40/intra_refresh=0/rc_lookahead=40/rc=2pass/mbtree=1/bitrate=3401/ratetol=1.0/qcomp=0.60/qpmin=0/qpmax=69/qpstep=4/cplxblur=20.0/qblur=0.5/vbv_maxrate=14000/vbv_bufsize=14000/nal_hrd=none/filler=0/ip_ratio=1.40/aq=1: 1.00
    Default : Да
    Forced : Нет
    Аудио
    Идентификатор : 2
    Формат : PCM
    Идентификатор кодека : A_PCM/INT/LIT
    Продолжительность : 3 м. 4 с.
    Вид битрейта : Постоянный
    Битрейт : 1536 Кбит/сек
    Каналы : 2 канала
    Частота : 48, 0 КГц
    Частота кадров : 32, 001 кадра/сек (1500 SPF)
    Битовая глубина : 16 бит
    Размер потока : 33, 7 Мбайт (31%)
    Default : Да
    Forced : Нет
    Общее
    Уникальный идентификатор : 227061402001841751586324538750972331032 (0xAAD26F71FB98B972B3760C48DAD60418)
    Полное имя : E: \Сборник русских клипов\mkv\Русские клипы от ALEXnROCK часть 1 mkv\Русские клипы от ALEXnROCK mkv Диск 1\006 Инь-Ян - Сохрани меня ALEXnROCK.mkv
    Формат : Matroska
    Версия формата : Version 4/Version 2
    Размер файла : 119 Мбайт
    Продолжительность : 3 м. 22 с.
    Общий поток : 4934 Кбит/сек
    Дата кодирования : UTC 2017-05-06 12: 09: 50
    Программа кодирования : mkvmerge v9.8.0 (\\'Kuglblids\\') 64bit
    Библиотека кодирования : libebml v1.3.4 + libmatroska v1.4.5
    Видео
    Идентификатор : 1
    Формат : AVC
    Формат/Информация : Advanced Video Codec
    Профиль формата : High@L4
    Настройки формата : CABAC/4 Ref Frames
    Параметр CABAC формата : Да
    Параметр RefFrames формата : 4 кадра
    Идентификатор кодека : V_MPEG4/ISO/AVC
    Продолжительность : 3 м. 22 с.
    Битрейт : 3400 Кбит/сек
    Ширина : 1280 пикселей
    Высота : 864 пикселя
    Соотношение сторон : 3: 2
    Режим частоты кадров : Постоянный
    Частота кадров : 25, 000 кадров/сек
    Цветовое пространство : YUV
    Субдискретизация насыщенности : 4: 2: 0
    Битовая глубина : 8 бит
    Тип развёртки : Прогрессивная
    Бит/(Пиксели*Кадры) : 0.123
    Размер потока : 82, 0 Мбайт (69%)
    Библиотека кодирования : x264 core 146 r2538 121396c
    Настройки программы : cabac=1/ref=3/deblock=1: -1: -1/analyse=0x3: 0x113/me=hex/subme=7/psy=1/psy_rd=1.00: 0.20/mixed_ref=1/me_range=16/chroma_me=1/trellis=1/8x8dct=1/cqm=0/deadzone=21, 11/fast_pskip=1/chroma_qp_offset=-3/threads=12/lookahead_threads=2/sliced_threads=0/nr=0/decimate=0/interlaced=0/bluray_compat=0/constrained_intra=0/bframes=3/b_pyramid=2/b_adapt=1/b_bias=0/direct=3/weightb=1/open_gop=0/weightp=2/keyint=250/keyint_min=25/scenecut=40/intra_refresh=0/rc_lookahead=40/rc=2pass/mbtree=1/bitrate=3400/ratetol=1.0/qcomp=0.60/qpmin=0/qpmax=69/qpstep=4/cplxblur=20.0/qblur=0.5/vbv_maxrate=14000/vbv_bufsize=14000/nal_hrd=none/filler=0/ip_ratio=1.40/aq=1: 1.00
    Default : Да
    Forced : Нет
    Аудио
    Идентификатор : 2
    Формат : PCM
    Идентификатор кодека : A_PCM/INT/LIT
    Продолжительность : 3 м. 22 с.
    Вид битрейта : Постоянный
    Битрейт : 1536 Кбит/сек
    Каналы : 2 канала
    Частота : 48, 0 КГц
    Частота кадров : 32, 001 кадра/сек (1500 SPF)
    Битовая глубина : 16 бит
    Размер потока : 37, 0 Мбайт (31%)
    Default : Да
    Forced : Нет
    Общее
    Уникальный идентификатор : 181928973883090490337413508683503222439 (0x88DE3EF05F9E90CF8D404EB47AA3BEA7)
    Полное имя : E: \Сборник русских клипов\mkv\Русские клипы от ALEXnROCK часть 1 mkv\Русские клипы от ALEXnROCK mkv Диск 1\007 Валерия - Капелькою ALEXnROCK.mkv
    Формат : Matroska
    Версия формата : Version 4/Version 2
    Размер файла : 138 Мбайт
    Продолжительность : 3 м. 56 с.
    Общий поток : 4912 Кбит/сек
    Дата кодирования : UTC 2017-05-06 13: 42: 13
    Программа кодирования : mkvmerge v9.8.0 (\\'Kuglblids\\') 64bit
    Библиотека кодирования : libebml v1.3.4 + libmatroska v1.4.5
    Видео
    Идентификатор : 1
    Формат : AVC
    Формат/Информация : Advanced Video Codec
    Профиль формата : High@L4
    Настройки формата : CABAC/4 Ref Frames
    Параметр CABAC формата : Да
    Параметр RefFrames формата : 4 кадра
    Идентификатор кодека : V_MPEG4/ISO/AVC
    Продолжительность : 3 м. 56 с.
    Битрейт : 3401 Кбит/сек
    Ширина : 1280 пикселей
    Высота : 696 пикселей
    Соотношение сторон : 1, 85: 1
    Режим частоты кадров : Постоянный
    Частота кадров : 25, 000 кадров/сек
    Цветовое пространство : YUV
    Субдискретизация насыщенности : 4: 2: 0
    Битовая глубина : 8 бит
    Тип развёртки : Прогрессивная
    Бит/(Пиксели*Кадры) : 0.153
    Размер потока : 95, 9 Мбайт (69%)
    Библиотека кодирования : x264 core 146 r2538 121396c
    Настройки программы : cabac=1/ref=3/deblock=1: -1: -1/analyse=0x3: 0x113/me=hex/subme=7/psy=1/psy_rd=1.00: 0.20/mixed_ref=1/me_range=16/chroma_me=1/trellis=1/8x8dct=1/cqm=0/deadzone=21, 11/fast_pskip=1/chroma_qp_offset=-3/threads=12/lookahead_threads=2/sliced_threads=0/nr=0/decimate=0/interlaced=0/bluray_compat=0/constrained_intra=0/bframes=3/b_pyramid=2/b_adapt=1/b_bias=0/direct=3/weightb=1/open_gop=0/weightp=2/keyint=250/keyint_min=25/scenecut=40/intra_refresh=0/rc_lookahead=40/rc=2pass/mbtree=1/bitrate=3401/ratetol=1.0/qcomp=0.60/qpmin=0/qpmax=69/qpstep=4/cplxblur=20.0/qblur=0.5/vbv_maxrate=14000/vbv_bufsize=14000/nal_hrd=none/filler=0/ip_ratio=1.40/aq=1: 1.00
    Default : Да
    Forced : Нет
    Аудио
    Идентификатор : 2
    Формат : PCM
    Идентификатор кодека : A_PCM/INT/LIT
    Продолжительность : 3 м. 50 с.
    Вид битрейта : Постоянный
    Битрейт : 1536 Кбит/сек
    Каналы : 2 канала
    Частота : 48, 0 КГц
    Частота кадров : 32, 003 кадра/сек (1500 SPF)
    Битовая глубина : 16 бит
    Размер потока : 42, 2 Мбайт (31%)
    Default : Да
    Forced : Нет
    Общее
    Уникальный идентификатор : 218218719793465385043471175846007696465 (0xA42B658D51B033B7B48BA20A45746C51)
    Полное имя : E: \Сборник русских клипов\mkv\Русские клипы от ALEXnROCK часть 1 mkv\Русские клипы от ALEXnROCK mkv Диск 1\008 Иракли - Лондон-Париж ALEXnROCK.mkv
    Формат : Matroska
    Версия формата : Version 4/Version 2
    Размер файла : 129 Мбайт
    Продолжительность : 3 м. 38 с.
    Общий поток : 4931 Кбит/сек
    Дата кодирования : UTC 2017-05-06 14: 18: 58
    Программа кодирования : mkvmerge v9.8.0 (\\'Kuglblids\\') 64bit
    Библиотека кодирования : libebml v1.3.4 + libmatroska v1.4.5
    Видео
    Идентификатор : 1
    Формат : AVC
    Формат/Информация : Advanced Video Codec
    Профиль формата : High@L4
    Настройки формата : CABAC/4 Ref Frames
    Параметр CABAC формата : Да
    Параметр RefFrames формата : 4 кадра
    Идентификатор кодека : V_MPEG4/ISO/AVC
    Продолжительность : 3 м. 38 с.
    Битрейт : 3401 Кбит/сек
    Ширина : 1280 пикселей
    Высота : 696 пикселей
    Соотношение сторон : 1, 85: 1
    Режим частоты кадров : Постоянный
    Частота кадров : 25, 000 кадров/сек
    Цветовое пространство : YUV
    Субдискретизация насыщенности : 4: 2: 0
    Битовая глубина : 8 бит
    Тип развёртки : Прогрессивная
    Бит/(Пиксели*Кадры) : 0.153
    Размер потока : 88, 6 Мбайт (69%)
    Библиотека кодирования : x264 core 146 r2538 121396c
    Настройки программы : cabac=1/ref=3/deblock=1: -1: -1/analyse=0x3: 0x113/me=hex/subme=7/psy=1/psy_rd=1.00: 0.20/mixed_ref=1/me_range=16/chroma_me=1/trellis=1/8x8dct=1/cqm=0/deadzone=21, 11/fast_pskip=1/chroma_qp_offset=-3/threads=12/lookahead_threads=2/sliced_threads=0/nr=0/decimate=0/interlaced=0/bluray_compat=0/constrained_intra=0/bframes=3/b_pyramid=2/b_adapt=1/b_bias=0/direct=3/weightb=1/open_gop=0/weightp=2/keyint=250/keyint_min=25/scenecut=40/intra_refresh=0/rc_lookahead=40/rc=2pass/mbtree=1/bitrate=3401/ratetol=1.0/qcomp=0.60/qpmin=0/qpmax=69/qpstep=4/cplxblur=20.0/qblur=0.5/vbv_maxrate=14000/vbv_bufsize=14000/nal_hrd=none/filler=0/ip_ratio=1.40/aq=1: 1.00
    Default : Да
    Forced : Нет
    Аудио
    Идентификатор : 2
    Формат : PCM
    Идентификатор кодека : A_PCM/INT/LIT
    Продолжительность : 3 м. 37 с.
    Вид битрейта : Постоянный
    Битрейт : 1536 Кбит/сек
    Каналы : 2 канала
    Частота : 48, 0 КГц
    Частота кадров : 32, 001 кадра/сек (1500 SPF)
    Битовая глубина : 16 бит
    Размер потока : 39, 8 Мбайт (31%)
    Default : Да
    Forced : Нет
    Общее
    Уникальный идентификатор : 223344115173827842125679230275328508245 (0xA806830DF2F0E0A6A7AB5047CAB98155)
    Полное имя : E: \Сборник русских клипов\mkv\Русские клипы от ALEXnROCK часть 1 mkv\Русские клипы от ALEXnROCK mkv Диск 1\009 Банд\\'Эрос - Не зарекайся ALEXnROCK.mkv
    Формат : Matroska
    Версия формата : Version 2
    Размер файла : 136 Мбайт
    Продолжительность : 3 м. 51 с.
    Общий поток : 4941 Кбит/сек
    Дата кодирования : UTC 2017-05-06 11: 12: 37
    Программа кодирования : mkvmerge v7.8.0 (\\'River Man\\') 32bit built on Apr 3 2015 12: 11: 22
    Библиотека кодирования : libebml v1.3.1 + libmatroska v1.4.2
    Видео
    Идентификатор : 1
    Формат : AVC
    Формат/Информация : Advanced Video Codec
    Профиль формата : High@L4
    Настройки формата : CABAC/4 Ref Frames
    Параметр CABAC формата : Да
    Параметр RefFrames формата : 4 кадра
    Идентификатор кодека : V_MPEG4/ISO/AVC
    Продолжительность : 3 м. 51 с.
    Номинальный битрейт : 3400 Кбит/сек
    Ширина : 1280 пикселей
    Высота : 896 пикселей
    Соотношение сторон : 1, 429
    Режим частоты кадров : Постоянный
    Частота кадров : 25, 000 кадров/сек
    Цветовое пространство : YUV
    Субдискретизация насыщенности : 4: 2: 0
    Битовая глубина : 8 бит
    Тип развёртки : Прогрессивная
    Бит/(Пиксели*Кадры) : 0.119
    Библиотека кодирования : x264 core 146 r2538 121396c
    Настройки программы : cabac=1/ref=3/deblock=1: -1: -1/analyse=0x3: 0x113/me=hex/subme=7/psy=1/psy_rd=1.00: 0.20/mixed_ref=1/me_range=16/chroma_me=1/trellis=1/8x8dct=1/cqm=0/deadzone=21, 11/fast_pskip=1/chroma_qp_offset=-3/threads=12/lookahead_threads=2/sliced_threads=0/nr=0/decimate=0/interlaced=0/bluray_compat=0/constrained_intra=0/bframes=3/b_pyramid=2/b_adapt=1/b_bias=0/direct=3/weightb=1/open_gop=0/weightp=2/keyint=250/keyint_min=25/scenecut=40/intra_refresh=0/rc_lookahead=40/rc=2pass/mbtree=1/bitrate=3400/ratetol=1.0/qcomp=0.60/qpmin=0/qpmax=69/qpstep=4/cplxblur=20.0/qblur=0.5/vbv_maxrate=14000/vbv_bufsize=14000/nal_hrd=none/filler=0/ip_ratio=1.40/aq=1: 1.00
    Default : Да
    Forced : Нет
    Аудио
    Идентификатор : 2
    Формат : PCM
    Идентификатор кодека : A_PCM/INT/LIT
    Продолжительность : 3 м. 51 с.
    Вид битрейта : Постоянный
    Каналы : 2 канала
    Частота : 48, 0 КГц
    Битовая глубина : 16 бит
    Default : Да
    Forced : Нет
    Общее
    Уникальный идентификатор : 214436257537898935906986242369013939245 (0xA152EBC3BCA20A37AC40D197BFCBFC2D)
    Полное имя : E: \Сборник русских клипов\mkv\Русские клипы от ALEXnROCK часть 1 mkv\Русские клипы от ALEXnROCK mkv Диск 1\010 Эд Шульжевский - Она и он ALEXnROCK.mkv
    Формат : Matroska
    Версия формата : Version 4/Version 2
    Размер файла : 132 Мбайт
    Продолжительность : 3 м. 44 с.
    Общий поток : 4925 Кбит/сек
    Дата кодирования : UTC 2017-05-06 14: 57: 42
    Программа кодирования : mkvmerge v9.8.0 (\\'Kuglblids\\') 64bit
    Библиотека кодирования : libebml v1.3.4 + libmatroska v1.4.5
    Видео
    Идентификатор : 1
    Формат : AVC
    Формат/Информация : Advanced Video Codec
    Профиль формата : High@L4
    Настройки формата : CABAC/4 Ref Frames
    Параметр CABAC формата : Да
    Параметр RefFrames формата : 4 кадра
    Идентификатор кодека : V_MPEG4/ISO/AVC
    Продолжительность : 3 м. 44 с.
    Битрейт : 3400 Кбит/сек
    Ширина : 1280 пикселей
    Высота : 712 пикселей
    Соотношение сторон : 16: 9
    Режим частоты кадров : Постоянный
    Частота кадров : 25, 000 кадров/сек
    Цветовое пространство : YUV
    Субдискретизация насыщенности : 4: 2: 0
    Битовая глубина : 8 бит
    Тип развёртки : Прогрессивная
    Бит/(Пиксели*Кадры) : 0.149
    Размер потока : 91, 1 Мбайт (69%)
    Библиотека кодирования : x264 core 146 r2538 121396c
    Настройки программы : cabac=1/ref=3/deblock=1: -1: -1/analyse=0x3: 0x113/me=hex/subme=7/psy=1/psy_rd=1.00: 0.20/mixed_ref=1/me_range=16/chroma_me=1/trellis=1/8x8dct=1/cqm=0/deadzone=21, 11/fast_pskip=1/chroma_qp_offset=-3/threads=12/lookahead_threads=2/sliced_threads=0/nr=0/decimate=0/interlaced=0/bluray_compat=0/constrained_intra=0/bframes=3/b_pyramid=2/b_adapt=1/b_bias=0/direct=3/weightb=1/open_gop=0/weightp=2/keyint=250/keyint_min=25/scenecut=40/intra_refresh=0/rc_lookahead=40/rc=2pass/mbtree=1/bitrate=3400/ratetol=1.0/qcomp=0.60/qpmin=0/qpmax=69/qpstep=4/cplxblur=20.0/qblur=0.5/vbv_maxrate=14000/vbv_bufsize=14000/nal_hrd=none/filler=0/ip_ratio=1.40/aq=1: 1.00
    Default : Да
    Forced : Нет
    Аудио
    Идентификатор : 2
    Формат : PCM
    Идентификатор кодека : A_PCM/INT/LIT
    Продолжительность : 3 м. 42 с.
    Вид битрейта : Постоянный
    Битрейт : 1536 Кбит/сек
    Каналы : 2 канала
    Частота : 48, 0 КГц
    Частота кадров : 32, 002 кадра/сек (1500 SPF)
    Битовая глубина : 16 бит
    Размер потока : 40, 7 Мбайт (31%)
    Default : Да
    Forced : Нет
    Общее
    Уникальный идентификатор : 170884017689190667701274493309751486806 (0x808F108E1D13273CA5EA46B28AA96956)
    Полное имя : E: \Сборник русских клипов\mkv\Русские клипы от ALEXnROCK часть 1 mkv\Русские клипы от ALEXnROCK mkv Диск 1\011 ВИА Гра - Биология ALEXnROCK.mkv
    Формат : Matroska
    Версия формата : Version 4/Version 2
    Размер файла : 135 Мбайт
    Продолжительность : 3 м. 48 с.
    Общий поток : 4933 Кбит/сек
    Дата кодирования : UTC 2017-05-06 23: 56: 12
    Программа кодирования : mkvmerge v9.8.0 (\\'Kuglblids\\') 64bit
    Библиотека кодирования : libebml v1.3.4 + libmatroska v1.4.5
    Видео
    Идентификатор : 1
    Формат : AVC
    Формат/Информация : Advanced Video Codec
    Профиль формата : High@L4
    Настройки формата : CABAC/4 Ref Frames
    Параметр CABAC формата : Да
    Параметр RefFrames формата : 4 кадра
    Идентификатор кодека : V_MPEG4/ISO/AVC
    Продолжительность : 3 м. 48 с.
    Битрейт : 3400 Кбит/сек
    Ширина : 1280 пикселей
    Высота : 904 пикселя
    Соотношение сторон : 1, 416
    Режим частоты кадров : Постоянный
    Частота кадров : 25, 000 кадров/сек
    Цветовое пространство : YUV
    Субдискретизация насыщенности : 4: 2: 0
    Битовая глубина : 8 бит
    Тип развёртки : Прогрессивная
    Бит/(Пиксели*Кадры) : 0.118
    Размер потока : 92, 8 Мбайт (69%)
    Библиотека кодирования : x264 core 146 r2538 121396c
    Настройки программы : cabac=1/ref=3/deblock=1: -1: -1/analyse=0x3: 0x113/me=hex/subme=7/psy=1/psy_rd=1.00: 0.20/mixed_ref=1/me_range=16/chroma_me=1/trellis=1/8x8dct=1/cqm=0/deadzone=21, 11/fast_pskip=1/chroma_qp_offset=-3/threads=12/lookahead_threads=2/sliced_threads=0/nr=0/decimate=0/interlaced=0/bluray_compat=0/constrained_intra=0/bframes=3/b_pyramid=2/b_adapt=1/b_bias=0/direct=3/weightb=1/open_gop=0/weightp=2/keyint=250/keyint_min=25/scenecut=40/intra_refresh=0/rc_lookahead=40/rc=2pass/mbtree=1/bitrate=3400/ratetol=1.0/qcomp=0.60/qpmin=0/qpmax=69/qpstep=4/cplxblur=20.0/qblur=0.5/vbv_maxrate=14000/vbv_bufsize=14000/nal_hrd=none/filler=0/ip_ratio=1.40/aq=1: 1.00
    Default : Да
    Forced : Нет
    Аудио
    Идентификатор : 2
    Формат : PCM
    Идентификатор кодека : A_PCM/INT/LIT
    Продолжительность : 3 м. 47 с.
    Вид битрейта : Постоянный
    Битрейт : 1536 Кбит/сек
    Каналы : 2 канала
    Частота : 48, 0 КГц
    Частота кадров : 32, 002 кадра/сек (1500 SPF)
    Битовая глубина : 16 бит
    Размер потока : 41, 6 Мбайт (31%)
    Default : Да
    Forced : Нет
    Общее
    Уникальный идентификатор : 248172775344113588919175280479814895957 (0xBAB4568358C0CD4F84F6032FBFE94955)
    Полное имя : E: \Сборник русских клипов\mkv\Русские клипы от ALEXnROCK часть 1 mkv\Русские клипы от ALEXnROCK mkv Диск 1\012 МакSим - Научусь летать ALEXnROCK.mkv
    Формат : Matroska
    Версия формата : Version 4/Version 2
    Размер файла : 133 Мбайт
    Продолжительность : 3 м. 45 с.
    Общий поток : 4936 Кбит/сек
    Дата кодирования : UTC 2017-05-08 11: 57: 36
    Программа кодирования : mkvmerge v9.8.0 (\\'Kuglblids\\') 64bit
    Библиотека кодирования : libebml v1.3.4 + libmatroska v1.4.5
    Видео
    Идентификатор : 1
    Формат : AVC
    Формат/Информация : Advanced Video Codec
    Профиль формата : High@L4
    Настройки формата : CABAC/4 Ref Frames
    Параметр CABAC формата : Да
    Параметр RefFrames формата : 4 кадра
    Идентификатор кодека : V_MPEG4/ISO/AVC
    Продолжительность : 3 м. 45 с.
    Битрейт : 3400 Кбит/сек
    Ширина : 1280 пикселей
    Высота : 920 пикселей
    Соотношение сторон : 1, 391
    Режим частоты кадров : Постоянный
    Частота кадров : 25, 000 кадров/сек
    Цветовое пространство : YUV
    Субдискретизация насыщенности : 4: 2: 0
    Битовая глубина : 8 бит
    Тип развёртки : Прогрессивная
    Бит/(Пиксели*Кадры) : 0.115
    Размер потока : 91, 5 Мбайт (69%)
    Библиотека кодирования : x264 core 146 r2538 121396c
    Настройки программы : cabac=1/ref=3/deblock=1: -1: -1/analyse=0x3: 0x113/me=hex/subme=7/psy=1/psy_rd=1.00: 0.20/mixed_ref=1/me_range=16/chroma_me=1/trellis=1/8x8dct=1/cqm=0/deadzone=21, 11/fast_pskip=1/chroma_qp_offset=-3/threads=12/lookahead_threads=2/sliced_threads=0/nr=0/decimate=0/interlaced=0/bluray_compat=0/constrained_intra=0/bframes=3/b_pyramid=2/b_adapt=1/b_bias=0/direct=3/weightb=1/open_gop=0/weightp=2/keyint=250/keyint_min=25/scenecut=40/intra_refresh=0/rc_lookahead=40/rc=2pass/mbtree=1/bitrate=3400/ratetol=1.0/qcomp=0.60/qpmin=0/qpmax=69/qpstep=4/cplxblur=20.0/qblur=0.5/vbv_maxrate=14000/vbv_bufsize=14000/nal_hrd=none/filler=0/ip_ratio=1.40/aq=1: 1.00
    Default : Да
    Forced : Нет
    Аудио
    Идентификатор : 2
    Формат : PCM
    Идентификатор кодека : A_PCM/INT/LIT
    Продолжительность : 3 м. 45 с.
    Вид битрейта : Постоянный
    Битрейт : 1536 Кбит/сек
    Каналы : 2 канала
    Частота : 48, 0 КГц
    Частота кадров : 32, 002 кадра/сек (1500 SPF)
    Битовая глубина : 16 бит
    Размер потока : 41, 2 Мбайт (31%)
    Default : Да
    Forced : Нет
    Общее
    Уникальный идентификатор : 184034071692713255714723266391053695344 (0x8A73AC46313E5C8FB7B505614403F970)
    Полное имя : E: \Сборник русских клипов\mkv\Русские клипы от ALEXnROCK часть 1 mkv\Русские клипы от ALEXnROCK mkv Диск 1\013 Dj.Smash - Волна (feat Fast Food ALEXnROCK.mkv
    Формат : Matroska
    Версия формата : Version 4/Version 2
    Размер файла : 154 Мбайт
    Продолжительность : 4 м. 22 с.
    Общий поток : 4938 Кбит/сек
    Дата кодирования : UTC 2017-05-08 10: 10: 00
    Программа кодирования : mkvmerge v9.8.0 (\\'Kuglblids\\') 64bit
    Библиотека кодирования : libebml v1.3.4 + libmatroska v1.4.5
    Видео
    Идентификатор : 1
    Формат : AVC
    Формат/Информация : Advanced Video Codec
    Профиль формата : High@L4
    Настройки формата : CABAC/4 Ref Frames
    Параметр CABAC формата : Да
    Параметр RefFrames формата : 4 кадра
    Идентификатор кодека : V_MPEG4/ISO/AVC
    Продолжительность : 4 м. 22 с.
    Битрейт : 3400 Кбит/сек
    Ширина : 1280 пикселей
    Высота : 504 пикселя
    Соотношение сторон : 2, 540
    Режим частоты кадров : Постоянный
    Частота кадров : 25, 000 кадров/сек
    Цветовое пространство : YUV
    Субдискретизация насыщенности : 4: 2: 0
    Битовая глубина : 8 бит
    Тип развёртки : Прогрессивная
    Бит/(Пиксели*Кадры) : 0.211
    Размер потока : 106 Мбайт (69%)
    Библиотека кодирования : x264 core 146 r2538 121396c
    Настройки программы : cabac=1/ref=3/deblock=1: -1: -1/analyse=0x3: 0x113/me=hex/subme=7/psy=1/psy_rd=1.00: 0.20/mixed_ref=1/me_range=16/chroma_me=1/trellis=1/8x8dct=1/cqm=0/deadzone=21, 11/fast_pskip=1/chroma_qp_offset=-3/threads=12/lookahead_threads=2/sliced_threads=0/nr=0/decimate=0/interlaced=0/bluray_compat=0/constrained_intra=0/bframes=3/b_pyramid=2/b_adapt=1/b_bias=0/direct=3/weightb=1/open_gop=0/weightp=2/keyint=250/keyint_min=25/scenecut=40/intra_refresh=0/rc_lookahead=40/rc=2pass/mbtree=1/bitrate=3400/ratetol=1.0/qcomp=0.60/qpmin=0/qpmax=69/qpstep=4/cplxblur=20.0/qblur=0.5/vbv_maxrate=14000/vbv_bufsize=14000/nal_hrd=none/filler=0/ip_ratio=1.40/aq=1: 1.00
    Default : Да
    Forced : Нет
    Аудио
    Идентификатор : 2
    Формат : PCM
    Идентификатор кодека : A_PCM/INT/LIT
    Продолжительность : 4 м. 21 с.
    Вид битрейта : Постоянный
    Битрейт : 1536 Кбит/сек
    Каналы : 2 канала
    Частота : 48, 0 КГц
    Частота кадров : 32, 002 кадра/сек (1500 SPF)
    Битовая глубина : 16 бит
    Размер потока : 47, 9 Мбайт (31%)
    Default : Да
    Forced : Нет
    Общее
    Уникальный идентификатор : 230746481365561565981216819057173168202 (0xAD9827E2AA65007F8EC8142845AB804A)
    Полное имя : E: \Сборник русских клипов\mkv\Русские клипы от ALEXnROCK часть 1 mkv\Русские клипы от ALEXnROCK mkv Диск 1\014 Паскаль - Шелковое сердце ALEXnROCK.mkv
    Формат : Matroska
    Версия формата : Version 4/Version 2
    Размер файла : 156 Мбайт
    Продолжительность : 4 м. 25 с.
    Общий поток : 4937 Кбит/сек
    Дата кодирования : UTC 2017-05-07 00: 38: 55
    Программа кодирования : mkvmerge v9.8.0 (\\'Kuglblids\\') 64bit
    Библиотека кодирования : libebml v1.3.4 + libmatroska v1.4.5
    Видео
    Идентификатор : 1
    Формат : AVC
    Формат/Информация : Advanced Video Codec
    Профиль формата : High@L4
    Настройки формата : CABAC/4 Ref Frames
    Параметр CABAC формата : Да
    Параметр RefFrames формата : 4 кадра
    Идентификатор кодека : V_MPEG4/ISO/AVC
    Продолжительность : 4 м. 24 с.
    Битрейт : 3400 Кбит/сек
    Ширина : 1280 пикселей
    Высота : 712 пикселей
    Соотношение сторон : 16: 9
    Режим частоты кадров : Постоянный
    Частота кадров : 29, 970 (30000/1001) кадров/сек
    Цветовое пространство : YUV
    Субдискретизация насыщенности : 4: 2: 0
    Битовая глубина : 8 бит
    Тип развёртки : Прогрессивная
    Бит/(Пиксели*Кадры) : 0.124
    Размер потока : 108 Мбайт (69%)
    Библиотека кодирования : x264 core 146 r2538 121396c
    Настройки программы : cabac=1/ref=3/deblock=1: -1: -1/analyse=0x3: 0x113/me=hex/subme=7/psy=1/psy_rd=1.00: 0.20/mixed_ref=1/me_range=16/chroma_me=1/trellis=1/8x8dct=1/cqm=0/deadzone=21, 11/fast_pskip=1/chroma_qp_offset=-3/threads=12/lookahead_threads=2/sliced_threads=0/nr=0/decimate=0/interlaced=0/bluray_compat=0/constrained_intra=0/bframes=3/b_pyramid=2/b_adapt=1/b_bias=0/direct=3/weightb=1/open_gop=0/weightp=2/keyint=250/keyint_min=25/scenecut=40/intra_refresh=0/rc_lookahead=40/rc=2pass/mbtree=1/bitrate=3400/ratetol=1.0/qcomp=0.60/qpmin=0/qpmax=69/qpstep=4/cplxblur=20.0/qblur=0.5/vbv_maxrate=14000/vbv_bufsize=14000/nal_hrd=none/filler=0/ip_ratio=1.40/aq=1: 1.00
    Default : Да
    Forced : Нет
    Аудио
    Идентификатор : 2
    Формат : PCM
    Идентификатор кодека : A_PCM/INT/LIT
    Продолжительность : 4 м. 25 с.
    Вид битрейта : Постоянный
    Битрейт : 1536 Кбит/сек
    Каналы : 2 канала
    Частота : 48, 0 КГц
    Частота кадров : 32, 002 кадра/сек (1500 SPF)
    Битовая глубина : 16 бит
    Размер потока : 48, 6 Мбайт (31%)
    Default : Да
    Forced : Нет
    Общее
    Уникальный идентификатор : 213696370252275552906219591508109368384 (0xA0C46C814643E49C9C30870F70751C40)
    Полное имя : E: \Сборник русских клипов\mkv\Русские клипы от ALEXnROCK часть 1 mkv\Русские клипы от ALEXnROCK mkv Диск 1\015 Глюкоза - Ой, ой ALEXnROCK.mkv
    Формат : Matroska
    Версия формата : Version 4/Version 2
    Размер файла : 166 Мбайт
    Продолжительность : 3 м. 35 с.
    Общий поток : 6468 Кбит/сек
    Дата кодирования : UTC 2017-05-13 11: 29: 11
    Программа кодирования : mkvmerge v9.8.0 (\\'Kuglblids\\') 64bit
    Библиотека кодирования : libebml v1.3.4 + libmatroska v1.4.5
    Видео
    Идентификатор : 1
    Формат : AVC
    Формат/Информация : Advanced Video Codec
    Профиль формата : High@L4
    Настройки формата : CABAC/4 Ref Frames
    Параметр CABAC формата : Да
    Параметр RefFrames формата : 4 кадра
    Идентификатор кодека : V_MPEG4/ISO/AVC
    Продолжительность : 3 м. 35 с.
    Битрейт : 3400 Кбит/сек
    Ширина : 1280 пикселей
    Высота : 576 пикселей
    Соотношение сторон : 2, 222
    Режим частоты кадров : Постоянный
    Частота кадров : 25, 000 кадров/сек
    Цветовое пространство : YUV
    Субдискретизация насыщенности : 4: 2: 0
    Битовая глубина : 8 бит
    Тип развёртки : Прогрессивная
    Бит/(Пиксели*Кадры) : 0.184
    Размер потока : 87, 3 Мбайт (52%)
    Библиотека кодирования : x264 core 146 r2538 121396c
    Настройки программы : cabac=1/ref=3/deblock=1: -1: -1/analyse=0x3: 0x113/me=hex/subme=7/psy=1/psy_rd=1.00: 0.20/mixed_ref=1/me_range=16/chroma_me=1/trellis=1/8x8dct=1/cqm=0/deadzone=21, 11/fast_pskip=1/chroma_qp_offset=-3/threads=12/lookahead_threads=2/sliced_threads=0/nr=0/decimate=0/interlaced=0/bluray_compat=0/constrained_intra=0/bframes=3/b_pyramid=2/b_adapt=1/b_bias=0/direct=3/weightb=1/open_gop=0/weightp=2/keyint=250/keyint_min=25/scenecut=40/intra_refresh=0/rc_lookahead=40/rc=2pass/mbtree=1/bitrate=3400/ratetol=1.0/qcomp=0.60/qpmin=0/qpmax=69/qpstep=4/cplxblur=20.0/qblur=0.5/vbv_maxrate=14000/vbv_bufsize=14000/nal_hrd=none/filler=0/ip_ratio=1.40/aq=1: 1.00
    Default : Да
    Forced : Нет
    Аудио
    Идентификатор : 2
    Формат : PCM
    Идентификатор кодека : A_PCM/INT/LIT
    Продолжительность : 3 м. 35 с.
    Вид битрейта : Постоянный
    Битрейт : 3072 Кбит/сек
    Каналы : 2 канала
    Частота : 96, 0 КГц
    Частота кадров : 32, 002 кадра/сек (3000 SPF)
    Битовая глубина : 16 бит
    Размер потока : 79, 0 Мбайт (47%)
    Default : Да
    Forced : Нет
    Общее
    Уникальный идентификатор : 224597774509841694231417092380139178276 (0xA8F7F53B5E09A33EBAD5C22396B3C924)
    Полное имя : E: \Сборник русских клипов\mkv\Русские клипы от ALEXnROCK часть 1 mkv\Русские клипы от ALEXnROCK mkv Диск 1\016 Чай вдвоем - День рождения ALEXnROCK.mkv
    Формат : Matroska
    Версия формата : Version 4/Version 2
    Размер файла : 133 Мбайт
    Продолжительность : 3 м. 45 с.
    Общий поток : 4935 Кбит/сек
    Дата кодирования : UTC 2017-05-08 10: 32: 05
    Программа кодирования : mkvmerge v9.8.0 (\\'Kuglblids\\') 64bit
    Библиотека кодирования : libebml v1.3.4 + libmatroska v1.4.5
    Видео
    Идентификатор : 1
    Формат : AVC
    Формат/Информация : Advanced Video Codec
    Профиль формата : High@L4
    Настройки формата : CABAC/4 Ref Frames
    Параметр CABAC формата : Да
    Параметр RefFrames формата : 4 кадра
    Идентификатор кодека : V_MPEG4/ISO/AVC
    Продолжительность : 3 м. 45 с.
    Битрейт : 3400 Кбит/сек
    Ширина : 1280 пикселей
    Высота : 720 пикселей
    Соотношение сторон : 16: 9
    Режим частоты кадров : Постоянный
    Частота кадров : 25, 000 кадров/сек
    Цветовое пространство : YUV
    Субдискретизация насыщенности : 4: 2: 0
    Битовая глубина : 8 бит
    Тип развёртки : Прогрессивная
    Бит/(Пиксели*Кадры) : 0.148
    Размер потока : 91, 3 Мбайт (69%)
    Библиотека кодирования : x264 core 146 r2538 121396c
    Настройки программы : cabac=1/ref=3/deblock=1: -1: -1/analyse=0x3: 0x113/me=hex/subme=7/psy=1/psy_rd=1.00: 0.20/mixed_ref=1/me_range=16/chroma_me=1/trellis=1/8x8dct=1/cqm=0/deadzone=21, 11/fast_pskip=1/chroma_qp_offset=-3/threads=12/lookahead_threads=2/sliced_threads=0/nr=0/decimate=0/interlaced=0/bluray_compat=0/constrained_intra=0/bframes=3/b_pyramid=2/b_adapt=1/b_bias=0/direct=3/weightb=1/open_gop=0/weightp=2/keyint=250/keyint_min=25/scenecut=40/intra_refresh=0/rc_lookahead=40/rc=2pass/mbtree=1/bitrate=3400/ratetol=1.0/qcomp=0.60/qpmin=0/qpmax=69/qpstep=4/cplxblur=20.0/qblur=0.5/vbv_maxrate=14000/vbv_bufsize=14000/nal_hrd=none/filler=0/ip_ratio=1.40/aq=1: 1.00
    Default : Да
    Forced : Нет
    Аудио
    Идентификатор : 2
    Формат : PCM
    Идентификатор кодека : A_PCM/INT/LIT
    Продолжительность : 3 м. 44 с.
    Вид битрейта : Постоянный
    Битрейт : 1536 Кбит/сек
    Каналы : 2 канала
    Частота : 48, 0 КГц
    Частота кадров : 32, 002 кадра/сек (1500 SPF)
    Битовая глубина : 16 бит
    Размер потока : 41, 2 Мбайт (31%)
    Default : Да
    Forced : Нет
    Общее
    Уникальный идентификатор : 207416272057272094528340252994888678370 (0x9C0AEBC21F67C4D495FC149B831A3BE2)
    Полное имя : E: \Сборник русских клипов\mkv\Русские клипы от ALEXnROCK часть 1 mkv\Русские клипы от ALEXnROCK mkv Диск 1\017 Шпильки - Стерва ALEXnROCK.mkv
    Формат : Matroska
    Версия формата : Version 4/Version 2
    Размер файла : 116 Мбайт
    Продолжительность : 3 м. 18 с.
    Общий поток : 4920 Кбит/сек
    Дата кодирования : UTC 2017-05-08 17: 30: 28
    Программа кодирования : mkvmerge v9.8.0 (\\'Kuglblids\\') 64bit
    Библиотека кодирования : libebml v1.3.4 + libmatroska v1.4.5
    Видео
    Идентификатор : 1
    Формат : AVC
    Формат/Информация : Advanced Video Codec
    Профиль формата : High@L4
    Настройки формата : CABAC/4 Ref Frames
    Параметр CABAC формата : Да
    Параметр RefFrames формата : 4 кадра
    Идентификатор кодека : V_MPEG4/ISO/AVC
    Продолжительность : 3 м. 18 с.
    Битрейт : 3400 Кбит/сек
    Ширина : 1280 пикселей
    Высота : 904 пикселя
    Соотношение сторон : 1, 416
    Режим частоты кадров : Постоянный
    Частота кадров : 25, 000 кадров/сек
    Цветовое пространство : YUV
    Субдискретизация насыщенности : 4: 2: 0
    Битовая глубина : 8 бит
    Тип развёртки : Прогрессивная
    Бит/(Пиксели*Кадры) : 0.118
    Размер потока : 80, 5 Мбайт (69%)
    Библиотека кодирования : x264 core 146 r2538 121396c
    Настройки программы : cabac=1/ref=3/deblock=1: -1: -1/analyse=0x3: 0x113/me=hex/subme=7/psy=1/psy_rd=1.00: 0.20/mixed_ref=1/me_range=16/chroma_me=1/trellis=1/8x8dct=1/cqm=0/deadzone=21, 11/fast_pskip=1/chroma_qp_offset=-3/threads=12/lookahead_threads=2/sliced_threads=0/nr=0/decimate=0/interlaced=0/bluray_compat=0/constrained_intra=0/bframes=3/b_pyramid=2/b_adapt=1/b_bias=0/direct=3/weightb=1/open_gop=0/weightp=2/keyint=250/keyint_min=25/scenecut=40/intra_refresh=0/rc_lookahead=40/rc=2pass/mbtree=1/bitrate=3400/ratetol=1.0/qcomp=0.60/qpmin=0/qpmax=69/qpstep=4/cplxblur=20.0/qblur=0.5/vbv_maxrate=14000/vbv_bufsize=14000/nal_hrd=none/filler=0/ip_ratio=1.40/aq=1: 1.00
    Default : Да
    Forced : Нет
    Аудио
    Идентификатор : 2
    Формат : PCM
    Идентификатор кодека : A_PCM/INT/LIT
    Продолжительность : 3 м. 14 с.
    Вид битрейта : Постоянный
    Битрейт : 1536 Кбит/сек
    Каналы : 2 канала
    Частота : 48, 0 КГц
    Частота кадров : 32, 005 кадра/сек (1500 SPF)
    Битовая глубина : 16 бит
    Размер потока : 35, 7 Мбайт (31%)
    Default : Да
    Forced : Нет
    Общее
    Уникальный идентификатор : 207657866093920699326726095878720422582 (0x9C39734391DFEB9F8BC5E18A343982B6)
    Полное имя : E: \Сборник русских клипов\mkv\Русские клипы от ALEXnROCK часть 1 mkv\Русские клипы от ALEXnROCK mkv Диск 1\018 A`Studio - Fashion girl ALEXnROCK.mkv
    Формат : Matroska
    Версия формата : Version 4/Version 2
    Размер файла : 135 Мбайт
    Продолжительность : 3 м. 50 с.
    Общий поток : 4933 Кбит/сек
    Дата кодирования : UTC 2017-05-09 13: 38: 24
    Программа кодирования : mkvmerge v9.8.0 (\\'Kuglblids\\') 64bit
    Библиотека кодирования : libebml v1.3.4 + libmatroska v1.4.5
    Видео
    Идентификатор : 1
    Формат : AVC
    Формат/Информация : Advanced Video Codec
    Профиль формата : High@L4
    Настройки формата : CABAC/4 Ref Frames
    Параметр CABAC формата : Да
    Параметр RefFrames формата : 4 кадра
    Идентификатор кодека : V_MPEG4/ISO/AVC
    Продолжительность : 3 м. 50 с.
    Битрейт : 3400 Кбит/сек
    Ширина : 1280 пикселей
    Высота : 720 пикселей
    Соотношение сторон : 16: 9
    Режим частоты кадров : Постоянный
    Частота кадров : 25, 000 кадров/сек
    Цветовое пространство : YUV
    Субдискретизация насыщенности : 4: 2: 0
    Битовая глубина : 8 бит
    Тип развёртки : Прогрессивная
    Бит/(Пиксели*Кадры) : 0.148
    Размер потока : 93, 2 Мбайт (69%)
    Библиотека кодирования : x264 core 146 r2538 121396c
    Настройки программы : cabac=1/ref=3/deblock=1: -1: -1/analyse=0x3: 0x113/me=hex/subme=7/psy=1/psy_rd=1.00: 0.20/mixed_ref=1/me_range=16/chroma_me=1/trellis=1/8x8dct=1/cqm=0/deadzone=21, 11/fast_pskip=1/chroma_qp_offset=-3/threads=12/lookahead_threads=2/sliced_threads=0/nr=0/decimate=0/interlaced=0/bluray_compat=0/constrained_intra=0/bframes=3/b_pyramid=2/b_adapt=1/b_bias=0/direct=3/weightb=1/open_gop=0/weightp=2/keyint=250/keyint_min=25/scenecut=40/intra_refresh=0/rc_lookahead=40/rc=2pass/mbtree=1/bitrate=3400/ratetol=1.0/qcomp=0.60/qpmin=0/qpmax=69/qpstep=4/cplxblur=20.0/qblur=0.5/vbv_maxrate=14000/vbv_bufsize=14000/nal_hrd=none/filler=0/ip_ratio=1.40/aq=1: 1.00
    Default : Да
    Forced : Нет
    Аудио
    Идентификатор : 2
    Формат : PCM
    Идентификатор кодека : A_PCM/INT/LIT
    Продолжительность : 3 м. 49 с.
    Вид битрейта : Постоянный
    Битрейт : 1536 Кбит/сек
    Каналы : 2 канала
    Частота : 48, 0 КГц
    Частота кадров : 32, 003 кадра/сек (1500 SPF)
    Битовая глубина : 16 бит
    Размер потока : 42, 0 Мбайт (31%)
    Default : Да
    Forced : Нет
    Общее
    Уникальный идентификатор : 175630497654131995057292767519491182020 (0x84213415D259FE66B0FB5816E12F4DC4)
    Полное имя : E: \Сборник русских клипов\mkv\Русские клипы от ALEXnROCK часть 1 mkv\Русские клипы от ALEXnROCK mkv Диск 1\019 Инь-Ян - Камикадзе ALEXnROCK.mkv
    Формат : Matroska
    Версия формата : Version 4/Version 2
    Размер файла : 148 Мбайт
    Продолжительность : 4 м. 11 с.
    Общий поток : 4937 Кбит/сек
    Дата кодирования : UTC 2017-05-08 10: 42: 41
    Программа кодирования : mkvmerge v9.8.0 (\\'Kuglblids\\') 64bit
    Библиотека кодирования : libebml v1.3.4 + libmatroska v1.4.5
    Видео
    Идентификатор : 1
    Формат : AVC
    Формат/Информация : Advanced Video Codec
    Профиль формата : High@L4
    Настройки формата : CABAC/4 Ref Frames
    Параметр CABAC формата : Да
    Параметр RefFrames формата : 4 кадра
    Идентификатор кодека : V_MPEG4/ISO/AVC
    Продолжительность : 4 м. 11 с.
    Битрейт : 3400 Кбит/сек
    Ширина : 1280 пикселей
    Высота : 696 пикселей
    Соотношение сторон : 1, 85: 1
    Режим частоты кадров : Постоянный
    Частота кадров : 25, 000 кадров/сек
    Цветовое пространство : YUV
    Субдискретизация насыщенности : 4: 2: 0
    Битовая глубина : 8 бит
    Тип развёртки : Прогрессивная
    Бит/(Пиксели*Кадры) : 0.153
    Размер потока : 102 Мбайт (69%)
    Библиотека кодирования : x264 core 146 r2538 121396c
    Настройки программы : cabac=1/ref=3/deblock=1: -1: -1/analyse=0x3: 0x113/me=hex/subme=7/psy=1/psy_rd=1.00: 0.20/mixed_ref=1/me_range=16/chroma_me=1/trellis=1/8x8dct=1/cqm=0/deadzone=21, 11/fast_pskip=1/chroma_qp_offset=-3/threads=12/lookahead_threads=2/sliced_threads=0/nr=0/decimate=0/interlaced=0/bluray_compat=0/constrained_intra=0/bframes=3/b_pyramid=2/b_adapt=1/b_bias=0/direct=3/weightb=1/open_gop=0/weightp=2/keyint=250/keyint_min=25/scenecut=40/intra_refresh=0/rc_lookahead=40/rc=2pass/mbtree=1/bitrate=3400/ratetol=1.0/qcomp=0.60/qpmin=0/qpmax=69/qpstep=4/cplxblur=20.0/qblur=0.5/vbv_maxrate=14000/vbv_bufsize=14000/nal_hrd=none/filler=0/ip_ratio=1.40/aq=1: 1.00
    Default : Да
    Forced : Нет
    Аудио
    Идентификатор : 2
    Формат : PCM
    Идентификатор кодека : A_PCM/INT/LIT
    Продолжительность : 4 м. 10 с.
    Вид битрейта : Постоянный
    Битрейт : 1536 Кбит/сек
    Каналы : 2 канала
    Частота : 48, 0 КГц
    Частота кадров : 32, 003 кадра/сек (1500 SPF)
    Битовая глубина : 16 бит
    Размер потока : 45, 9 Мбайт (31%)
    Default : Да
    Forced : Нет
    Общее
    Уникальный идентификатор : 229379020221691880844405095062408146067 (0xAC90CAD87E2069719BFA61B21DCA2C93)
    Полное имя : E: \Сборник русских клипов\mkv\Русские клипы от ALEXnROCK часть 1 mkv\Русские клипы от ALEXnROCK mkv Диск 1\020 Леонид Агутин Отпетые мошенники - Граница ALEXnROCK.mkv
    Формат : Matroska
    Версия формата : Version 4/Version 2
    Размер файла : 155 Мбайт
    Продолжительность : 4 м. 24 с.
    Общий поток : 4894 Кбит/сек
    Дата кодирования : UTC 2017-05-08 11: 20: 22
    Программа кодирования : mkvmerge v9.8.0 (\\'Kuglblids\\') 64bit
    Библиотека кодирования : libebml v1.3.4 + libmatroska v1.4.5
    Видео
    Идентификатор : 1
    Формат : AVC
    Формат/Информация : Advanced Video Codec
    Профиль формата : High@L4
    Настройки формата : CABAC/4 Ref Frames
    Параметр CABAC формата : Да
    Параметр RefFrames формата : 4 кадра
    Идентификатор кодека : V_MPEG4/ISO/AVC
    Продолжительность : 4 м. 24 с.
    Битрейт : 3400 Кбит/сек
    Ширина : 1280 пикселей
    Высота : 584 пикселя
    Соотношение сторон : 2, 2: 1
    Режим частоты кадров : Постоянный
    Частота кадров : 25, 000 кадров/сек
    Цветовое пространство : YUV
    Субдискретизация насыщенности : 4: 2: 0
    Битовая глубина : 8 бит
    Тип развёртки : Прогрессивная
    Бит/(Пиксели*Кадры) : 0.182
    Размер потока : 107 Мбайт (70%)
    Библиотека кодирования : x264 core 146 r2538 121396c
    Настройки программы : cabac=1/ref=3/deblock=1: -1: -1/analyse=0x3: 0x113/me=hex/subme=7/psy=1/psy_rd=1.00: 0.20/mixed_ref=1/me_range=16/chroma_me=1/trellis=1/8x8dct=1/cqm=0/deadzone=21, 11/fast_pskip=1/chroma_qp_offset=-3/threads=12/lookahead_threads=2/sliced_threads=0/nr=0/decimate=0/interlaced=0/bluray_compat=0/constrained_intra=0/bframes=3/b_pyramid=2/b_adapt=1/b_bias=0/direct=3/weightb=1/open_gop=0/weightp=2/keyint=250/keyint_min=25/scenecut=40/intra_refresh=0/rc_lookahead=40/rc=2pass/mbtree=1/bitrate=3400/ratetol=1.0/qcomp=0.60/qpmin=0/qpmax=69/qpstep=4/cplxblur=20.0/qblur=0.5/vbv_maxrate=14000/vbv_bufsize=14000/nal_hrd=none/filler=0/ip_ratio=1.40/aq=1: 1.00
    Default : Да
    Forced : Нет
    Аудио
    Идентификатор : 2
    Формат : PCM
    Идентификатор кодека : A_PCM/INT/LIT
    Продолжительность : 4 м. 16 с.
    Вид битрейта : Постоянный
    Битрейт : 1536 Кбит/сек
    Каналы : 2 канала
    Частота : 48, 0 КГц
    Частота кадров : 32, 003 кадра/сек (1500 SPF)
    Битовая глубина : 16 бит
    Размер потока : 47, 0 Мбайт (30%)
    Default : Да
    Forced : Нет
    Общее
    Уникальный идентификатор : 211449780545739970208466690259764791518 (0x9F13BF14A43C76899ACF261DC7EA48DE)
    Полное имя : E: \Сборник русских клипов\mkv\Русские клипы от ALEXnROCK часть 1 mkv\Русские клипы от ALEXnROCK mkv Диск 1\021 Батырхан Шукенов - Твои шаги ALEXnROCK.mkv
    Формат : Matroska
    Версия формата : Version 4/Version 2
    Размер файла : 107 Мбайт
    Продолжительность : 3 м. 2 с.
    Общий поток : 4927 Кбит/сек
    Дата кодирования : UTC 2017-05-09 17: 06: 59
    Программа кодирования : mkvmerge v9.8.0 (\\'Kuglblids\\') 64bit
    Библиотека кодирования : libebml v1.3.4 + libmatroska v1.4.5
    Видео
    Идентификатор : 1
    Формат : AVC
    Формат/Информация : Advanced Video Codec
    Профиль формата : High@L4
    Настройки формата : CABAC/4 Ref Frames
    Параметр CABAC формата : Да
    Параметр RefFrames формата : 4 кадра
    Идентификатор кодека : V_MPEG4/ISO/AVC
    Продолжительность : 3 м. 2 с.
    Битрейт : 3400 Кбит/сек
    Ширина : 1280 пикселей
    Высота : 720 пикселей
    Соотношение сторон : 16: 9
    Режим частоты кадров : Постоянный
    Частота кадров : 25, 000 кадров/сек
    Цветовое пространство : YUV
    Субдискретизация насыщенности : 4: 2: 0
    Битовая глубина : 8 бит
    Тип развёртки : Прогрессивная
    Бит/(Пиксели*Кадры) : 0.148
    Размер потока : 74, 0 Мбайт (69%)
    Библиотека кодирования : x264 core 146 r2538 121396c
    Настройки программы : cabac=1/ref=3/deblock=1: -1: -1/analyse=0x3: 0x113/me=hex/subme=7/psy=1/psy_rd=1.00: 0.20/mixed_ref=1/me_range=16/chroma_me=1/trellis=1/8x8dct=1/cqm=0/deadzone=21, 11/fast_pskip=1/chroma_qp_offset=-3/threads=12/lookahead_threads=2/sliced_threads=0/nr=0/decimate=0/interlaced=0/bluray_compat=0/constrained_intra=0/bframes=3/b_pyramid=2/b_adapt=1/b_bias=0/direct=3/weightb=1/open_gop=0/weightp=2/keyint=250/keyint_min=25/scenecut=40/intra_refresh=0/rc_lookahead=40/rc=2pass/mbtree=1/bitrate=3400/ratetol=1.0/qcomp=0.60/qpmin=0/qpmax=69/qpstep=4/cplxblur=20.0/qblur=0.5/vbv_maxrate=14000/vbv_bufsize=14000/nal_hrd=none/filler=0/ip_ratio=1.40/aq=1: 1.00
    Default : Да
    Forced : Нет
    Аудио
    Идентификатор : 2
    Формат : PCM
    Идентификатор кодека : A_PCM/INT/LIT
    Продолжительность : 3 м. 1 с.
    Вид битрейта : Постоянный
    Битрейт : 1536 Кбит/сек
    Каналы : 2 канала
    Частота : 48, 0 КГц
    Частота кадров : 32, 003 кадра/сек (1500 SPF)
    Битовая глубина : 16 бит
    Размер потока : 33, 3 Мбайт (31%)
    Default : Да
    Forced : Нет
    Общее
    Уникальный идентификатор : 229780059677882380238093819742491011035 (0xACDE079E11560095BD2FC9D6169067DB)
    Полное имя : E: \Сборник русских клипов\mkv\Русские клипы от ALEXnROCK часть 1 mkv\Русские клипы от ALEXnROCK mkv Диск 1\022 Тутси - Чашка капуччино ALEXnROCK.mkv
    Формат : Matroska
    Версия формата : Version 4/Version 2
    Размер файла : 109 Мбайт
    Продолжительность : 3 м. 6 с.
    Общий поток : 4937 Кбит/сек
    Дата кодирования : UTC 2017-05-08 12: 57: 05
    Программа кодирования : mkvmerge v9.8.0 (\\'Kuglblids\\') 64bit
    Библиотека кодирования : libebml v1.3.4 + libmatroska v1.4.5
    Видео
    Идентификатор : 1
    Формат : AVC
    Формат/Информация : Advanced Video Codec
    Профиль формата : High@L4
    Настройки формата : CABAC/4 Ref Frames
    Параметр CABAC формата : Да
    Параметр RefFrames формата : 4 кадра
    Идентификатор кодека : V_MPEG4/ISO/AVC
    Продолжительность : 3 м. 6 с.
    Битрейт : 3400 Кбит/сек
    Ширина : 1280 пикселей
    Высота : 720 пикселей
    Соотношение сторон : 16: 9
    Режим частоты кадров : Постоянный
    Частота кадров : 25, 000 кадров/сек
    Цветовое пространство : YUV
    Субдискретизация насыщенности : 4: 2: 0
    Битовая глубина : 8 бит
    Тип развёртки : Прогрессивная
    Бит/(Пиксели*Кадры) : 0.148
    Размер потока : 75, 6 Мбайт (69%)
    Библиотека кодирования : x264 core 146 r2538 121396c
    Настройки программы : cabac=1/ref=3/deblock=1: -1: -1/analyse=0x3: 0x113/me=hex/subme=7/psy=1/psy_rd=1.00: 0.20/mixed_ref=1/me_range=16/chroma_me=1/trellis=1/8x8dct=1/cqm=0/deadzone=21, 11/fast_pskip=1/chroma_qp_offset=-3/threads=12/lookahead_threads=2/sliced_threads=0/nr=0/decimate=0/interlaced=0/bluray_compat=0/constrained_intra=0/bframes=3/b_pyramid=2/b_adapt=1/b_bias=0/direct=3/weightb=1/open_gop=0/weightp=2/keyint=250/keyint_min=25/scenecut=40/intra_refresh=0/rc_lookahead=40/rc=2pass/mbtree=1/bitrate=3400/ratetol=1.0/qcomp=0.60/qpmin=0/qpmax=69/qpstep=4/cplxblur=20.0/qblur=0.5/vbv_maxrate=14000/vbv_bufsize=14000/nal_hrd=none/filler=0/ip_ratio=1.40/aq=1: 1.00
    Default : Да
    Forced : Нет
    Аудио
    Идентификатор : 2
    Формат : PCM
    Идентификатор кодека : A_PCM/INT/LIT
    Продолжительность : 3 м. 4 с.
    Вид битрейта : Постоянный
    Битрейт : 1536 Кбит/сек
    Каналы : 2 канала
    Частота : 48, 0 КГц
    Частота кадров : 32, 001 кадра/сек (1500 SPF)
    Битовая глубина : 16 бит
    Размер потока : 33, 8 Мбайт (31%)
    Default : Да
    Forced : Нет
    Общее
    Уникальный идентификатор : 177689276607069874643573503008860548015 (0x85ADB5B97A246E0FA1C875B7AC2C2BAF)
    Полное имя : E: \Сборник русских клипов\mkv\Русские клипы от ALEXnROCK часть 1 mkv\Русские клипы от ALEXnROCK mkv Диск 1\023 Иракли - Так не бывает ALEXnROCK.mkv
    Формат : Matroska
    Версия формата : Version 4/Version 2
    Размер файла : 140 Мбайт
    Продолжительность : 3 м. 58 с.
    Общий поток : 4938 Кбит/сек
    Дата кодирования : UTC 2017-05-07 00: 25: 24
    Программа кодирования : mkvmerge v9.8.0 (\\'Kuglblids\\') 64bit
    Библиотека кодирования : libebml v1.3.4 + libmatroska v1.4.5
    Видео
    Идентификатор : 1
    Формат : AVC
    Формат/Информация : Advanced Video Codec
    Профиль формата : High@L4
    Настройки формата : CABAC/4 Ref Frames
    Параметр CABAC формата : Да
    Параметр RefFrames формата : 4 кадра
    Идентификатор кодека : V_MPEG4/ISO/AVC
    Продолжительность : 3 м. 58 с.
    Битрейт : 3400 Кбит/сек
    Ширина : 1280 пикселей
    Высота : 648 пикселей
    Соотношение сторон : 1, 975
    Режим частоты кадров : Постоянный
    Частота кадров : 25, 000 кадров/сек
    Цветовое пространство : YUV
    Субдискретизация насыщенности : 4: 2: 0
    Битовая глубина : 8 бит
    Тип развёртки : Прогрессивная
    Бит/(Пиксели*Кадры) : 0.164
    Размер потока : 96, 6 Мбайт (69%)
    Библиотека кодирования : x264 core 146 r2538 121396c
    Настройки программы : cabac=1/ref=3/deblock=1: -1: -1/analyse=0x3: 0x113/me=hex/subme=7/psy=1/psy_rd=1.00: 0.20/mixed_ref=1/me_range=16/chroma_me=1/trellis=1/8x8dct=1/cqm=0/deadzone=21, 11/fast_pskip=1/chroma_qp_offset=-3/threads=12/lookahead_threads=2/sliced_threads=0/nr=0/decimate=0/interlaced=0/bluray_compat=0/constrained_intra=0/bframes=3/b_pyramid=2/b_adapt=1/b_bias=0/direct=3/weightb=1/open_gop=0/weightp=2/keyint=250/keyint_min=25/scenecut=40/intra_refresh=0/rc_lookahead=40/rc=2pass/mbtree=1/bitrate=3400/ratetol=1.0/qcomp=0.60/qpmin=0/qpmax=69/qpstep=4/cplxblur=20.0/qblur=0.5/vbv_maxrate=14000/vbv_bufsize=14000/nal_hrd=none/filler=0/ip_ratio=1.40/aq=1: 1.00
    Default : Да
    Forced : Нет
    Аудио
    Идентификатор : 2
    Формат : PCM
    Идентификатор кодека : A_PCM/INT/LIT
    Продолжительность : 3 м. 58 с.
    Вид битрейта : Постоянный
    Битрейт : 1536 Кбит/сек
    Каналы : 2 канала
    Частота : 48, 0 КГц
    Частота кадров : 32, 003 кадра/сек (1500 SPF)
    Битовая глубина : 16 бит
    Размер потока : 43, 6 Мбайт (31%)
    Default : Да
    Forced : Нет
    Общее
    Уникальный идентификатор : 189601578490887638456530900946493642788 (0x8EA3EF8D6F3964AFBBA47AD77A8C1824)
    Полное имя : E: \Сборник русских клипов\mkv\Русские клипы от ALEXnROCK часть 1 mkv\Русские клипы от ALEXnROCK mkv Диск 1\024 София Ротару - Я же его любила ALEXnROCK.mkv
    Формат : M
    загрузка...
    Рейтинг →
     (голосов: 1, оценка 3/5, голосовать можно 1 раз )

    Другие торренты по теме:

  • Сборник клипов - Русский Рок от ALEXnROCK (2017) WEBRip (H.264 / 720p-LQ) (часть 1)
  • Сборник клипов - Best Hits 80 от ALEXnROCK (2017) WEB-Rip (H.264 / 720p-LQ) (часть 1)
  • Сборник клипов - Reggae от ALEXnROCK (2017) WEBRip (H.264 / 720p-LQ) (часть 1)
  • Чи-Ли - Сборник клипов (2005-2015) DVDRip WebRip
  • Сборник клипов - Philizz "Video YearMix" (2015) HDTV [1080p]
  • Сборник клипов - Philizz "Tropical Summer" (2016) HDTV [1080p]
  • Сборник клипов - Philizz "I covered the 80s" (season 1, episode 1-5) (2016) WEB-DLRip [H.264 / 720-LQ]
  • Сборник клипов - Philizz "Video Yearmix" (2016) HDTV [AVC / 1080p]


    • Комментарии (0):

      Информация

      Информация

        Посетители, находящиеся в группе Гости, не могут оставлять комментарии в данной новости.

        ↓ Меню




        ↓ Опрос

        Вы добавили сайт в закладки?
        Да
        Нет


        Top 10 за месяц (Другое)