.
Авторизация | Регистрация
Хочешь лучшие торренты? Добавь свой email!
Добавить

Торрент скачать бесплатно

» » Любовь и путешествия во времени / Love and Time Travel (2016) WEB-DLRip [MVO] [AD] торрент скачать бесплатно




    Любовь и путешествия во времени / Love and Time Travel (2016) WEB-DLRip [MVO] [AD] торрент скачать бесплатно

    Опубликовал: Админ | Дата: 5-10-2017, 05:00 | Просмотров: 0

    Производство: Новая Зеландия
    Жанр: Фантастика, драма, мелодрама, комедия
    Режиссер: Хадер Дж. Вилл

    Актеры
    Ник Блейк, Бонни Брайант, Колин Клири, Эбби Дэмен, Джулиан Деннисон, Симеон Данкомб, Коэн Холлоуэй, Ральф Джонсон, Акушла-Тара Купе, Мишель Ни

    Описание

    Когда эмоционально изолированная бариста Дан Данкомб начинает получать странные сообщения внутри окна своей спальни, он вынужден участвовать в жизни окружающих его людей ... и, изменяя свою жизнь, он меняет свою собственную.

    Продолжительность: 01: 32: 34
    Качество видео: WEB-DLRip
    Перевод: Профессиональный многоголосый (Синема-Ус)
    Субтитры: Отсутствуют
    Реклама: Присутствуют аудио и текстовые вставки рекламы, вставки видео вырезаны.
    Видео: MPEG4, XviD, 720x304 (2.35: 1), 23.976 fps, 1 652 Kbps (0.315 bit/pixel)
    Аудио: AC-3, 48.0 KHz, 2 ch, 384 Kbps, CBR

    Общее
    Полное имя : D: NNMЛюбовь и путешествия во времениLubovj i puteshestviya 2016 WEB-DLRip.avi
    Формат : AVI
    Формат/Информация : Audio Video Interleave
    Размер файла : 1, 32 Гбайт
    Продолжительность : 1 ч. 32 м.
    Общий поток : 2046 Кбит/сек
    Программа кодирования : VirtualDubMod 1.5.10.3 (build 2550/release)
    Библиотека кодирования : VirtualDubMod build 2550/release
    Видео
    Идентификатор : 0
    Формат : MPEG-4 Visual
    Профиль формата : Advanced Simple@L5
    Параметр BVOP формата : 2
    Параметр QPel формата : Нет
    Параметр GMC формата : Без точки перехода
    Параметр матрицы формата : Default (MPEG)
    Идентификатор кодека : XVID
    Идентификатор кодека/Подсказка : XviD
    Продолжительность : 1 ч. 32 м.
    Битрейт : 1652 Кбит/сек
    Ширина : 720 пикселей
    Высота : 304 пикселя
    Соотношение сторон : 2, 35: 1
    Частота кадров : 23, 976 (24000/1001) кадра/сек
    Цветовое пространство : YUV
    Субдискретизация насыщенности : 4: 2: 0
    Битовая глубина : 8 бит
    Тип развёртки : Прогрессивная
    Метод сжатия : С потерями
    Бит/(Пиксели*Кадры) : 0.315
    Размер потока : 1, 07 Гбайт (81%)
    Библиотека кодирования : XviD 1.2.1 (UTC 2008-12-04)
    Аудио
    Идентификатор : 1
    Формат : AC-3
    Формат/Информация : Audio Coding 3
    Расширение режима : CM (complete main)
    Параметр Endianness формата : Big
    Идентификатор кодека : 2000
    Продолжительность : 1 ч. 32 м.
    Вид битрейта : Постоянный
    Битрейт : 384 Кбит/сек
    Каналы : 2 канала
    Расположение каналов : Front: L R
    Частота : 48, 0 КГц
    Частота кадров : 31, 250 кадров/сек (1536 spf)
    Битовая глубина : 16 бит
    Метод сжатия : С потерями
    Задержка видео : 27 мс.
    Размер потока : 254 Мбайт (19%)
    Выравнивание : Разделение по промежуткам
    Продолжительность промежутка : 42 мс. (1, 00 видеокадр)
    Время предзагрузки промежутка : 500 мс.

    Скриншоты для ознакомления



    Все релизы фильма Любовь и путешествия во времени на NNM-Club
    Время раздачи: Круглосуточно до 10 скачавших

    Любовь и путешествия во времени/Love and Time Travel (2016) WEB-DLRip [MVO] [AD]
    загрузка...
    Рейтинг →
     (голосов: 1, оценка 4/5, голосовать можно 1 раз )

    Другие торренты по теме:

  • Nisekoi | Nisekoi: False Love | Притворная любовь | Любовь понарошку [2014, TV, 17 из 20 эп.] BDrip 1080p raw
  • Nisekoi OVA | Nisekoi: False Love | Притворная любовь | Любовь понарошку OVA [2014, OVA, 1 из 2 эп.] DVDrip 480p raw скачать через торрент бесплатно
  • Nisekoi | Nisekoi: False Love | Притворная любовь | Любовь понарошку [2014, TV, 20 эп.] BDrip 720p raw скачать через торрент бесплатно
  • Любовь за любовь (2013) WEB-DLRip [H.264 / 720p-LQ] (серии 1-4 из 4) скачать через торрент бесплатно
  • Любовь за любовь (2013) WEB-DLRip (серии 1-4 из 4) скачать через торрент бесплатно
  • Любовь за любовь (2013) WEB-DL [H.264 / 1080p-LQ] (серии 1-4 из 4)
  • Вера, надежда, любовь Елены Серовой (2014) HDTV
  • Любовь от всех болезней / Supercondriaque (2014) BDRip [720p] [Звук с TS]


    • Комментарии (0):

      Информация

      Информация

        Посетители, находящиеся в группе Гости, не могут оставлять комментарии в данной новости.

        ↓ Меню




        ↓ Опрос

        Вы добавили сайт в закладки?
        Да
        Нет


        Top 10 за месяц (Другое)