.
Авторизация | Регистрация
Хочешь лучшие торренты? Добавь свой email!
Добавить

Торрент скачать бесплатно

» » Министерство любви / Ministarstvo ljubavi (2016) DVDRip [MVO] [AD] торрент скачать бесплатно




    Министерство любви / Ministarstvo ljubavi (2016) DVDRip [MVO] [AD] торрент скачать бесплатно

    Опубликовал: Админ | Дата: 29-09-2017, 05:00 | Просмотров: 0

    Производство: Хорватия, Чехия/8Heads Productions, Hrvatska Radiotelevizija (HRT), Телефильм
    Жанр: Комедия
    Режиссер: Паво Маринкович

    Актеры
    Степан Перич, Дражен Кун, Эция Ойданич, Ольга Пакалович, Милан Штрлич, Ксения Маринкович

    Описание

    Острая комедия об отношениях и бюрократизме. Крешо не у дел. Компетентный биолог, приближающийся к среднему возрасту, отчаянный, безработный, застрявший в браке, которого и не должно было быть. Тем временем, ограниченное в средствах правительство страны, ищет способы сэкономить деньги, и через 20 с лишним лет после войны 1990-х нацеливается на вдов павших солдат. Тем, кто вступил в новые отношения, больше не будут выдавать военную пенсию. С такими мерами нужен новый отдел: Министерство Любви, целью которого станет сбор информации о любых вдовах, нарушающих новый закон. Крешо соглашается стать протеже своего тестя. Есть одна проблема - он совершенно не подходит для данной работы.

    Релиз от: KOSHARA
    Продолжительность: 01: 41: 43
    Качество видео: DVDRip
    Перевод: Многоголосый (Синема УС)
    Субтитры: отсутствуют
    Реклама: присутствуют аудио и видео вставки рекламы
    Видео: Xvid, 720x400, ~1531 Kbps
    Аудио: AC3, 2 ch, 384 Kbps

    General
    Complete name : /media/win/TORRENT/UPLOAD TORRENTS/Ministry.Of.Love.2016.P.DVDRip.avi
    Format : AVI
    Format/Info : Audio Video Interleave
    File size : 1.37 GiB
    Duration : 1 h 41 min
    Overall bit rate : 1 924 kb/s
    Writing application : VirtualDubMod 1.5.10.2 (build 2540/release)
    Writing library : VirtualDubMod build 2540/release
    Video
    ID : 0
    Format : MPEG-4 Visual
    Format profile : Advanced Simple@L5
    Format settings, BVOP : 2
    Format settings, QPel : No
    Format settings, GMC : No warppoints
    Format settings, Matrix : Default (MPEG)
    Codec ID : XVID
    Codec ID/Hint : XviD
    Duration : 1 h 41 min
    Bit rate : 1 531 kb/s
    Width : 720 pixels
    Height : 400 pixels
    Display aspect ratio : 16: 9
    Frame rate : 23.976 (24000/1001) FPS
    Color space : YUV
    Chroma subsampling : 4: 2: 0
    Bit depth : 8 bits
    Scan type : Progressive
    Compression mode : Lossy
    Bits/(Pixel*Frame) : 0.222
    Stream size : 1.09 GiB (80%)
    Writing library : XviD 1.2.1 (UTC 2008-12-04)
    Audio
    ID : 1
    Format : AC-3
    Format/Info : Audio Coding 3
    Format settings, Endianness : Big
    Codec ID : 2000
    Duration : 1 h 41 min
    Bit rate mode : Constant
    Bit rate : 384 kb/s
    Channel(s) : 2 channels
    Channel positions : Front: L R
    Sampling rate : 48.0 kHz
    Frame rate : 31.250 FPS (1536 SPF)
    Bit depth : 16 bits
    Compression mode : Lossy
    Stream size : 279 MiB (20%)
    Alignment : Split accross interleaves
    Interleave, duration : 42 ms (1.00 video frame)
    Interleave, preload duration : 500 ms
    Service kind : Complete Main

    Скриншоты для ознакомления



    Все одноименные релизы в Клубе
    Время раздачи: c 09: 00 до 22: 00 до пяти скачавших (до появления первых 3-5 скачавших)

    Министерство любви/Ministarstvo ljubavi (2016) DVDRip [MVO] [AD]
    загрузка...
    Рейтинг →
     (голосов: 1, оценка 3/5, голосовать можно 1 раз )

    Другие торренты по теме:



      Комментарии (0):

      Информация

      Информация

        Посетители, находящиеся в группе Гости, не могут оставлять комментарии в данной новости.

        ↓ Меню




        ↓ Опрос

        Вы добавили сайт в закладки?
        Да
        Нет


        Top 10 за месяц (Другое)