.
Авторизация | Регистрация
Хочешь лучшие торренты? Добавь свой email!
Добавить

Торрент скачать бесплатно

» » Вышибала / The Bouncer (2016) HDTVRip [VO] [AD] торрент скачать бесплатно




    Вышибала / The Bouncer (2016) HDTVRip [VO] [AD] торрент скачать бесплатно

    Опубликовал: Админ | Дата: 29-09-2017, 05:00 | Просмотров: 0

    Производство: Франция, Израиль/Transfax Film Productions
    Жанр: Драма
    Режиссер: Meni Yaish

    Актеры
    Моррис Коэн, Ротем Зуссман-Коэн, Дэн Мор, Херцл Тоби, Алон Даан, Хаим Занати

    Описание

    Овадия, охранник ночного клуба в Тель-Авиве, принимает предложение главаря местной мафии заняться рэкетом, рассчитывая заработанными деньгами оплатить лечение бесплодия жены. После удачного лечения и наступления беременности Овадия хочет выйти из преступного бизнеса. Но это оказывается невозможно. Он сам становится жертвой шантажа.

    Релиз от: tornado /
    Продолжительность: 01: 39: 12
    Качество видео: HDTVRip
    Перевод: Одноголосый закадровый (tornado)
    Субтитры: Отсутствуют
    Реклама: Короткая аудореклама
    Видео: Xvid, 526х224, ~994 Kbps
    Аудио: AC3, 2 ch, 192 Kbps (русский)
    Аудио: AC3, 2 ch, 192 Kbps (иврит)

    Format : AVI
    Format/Info : Audio Video Interleave
    File size : 987 MiB
    Duration : 1 h 39 min
    Overall bit rate : 1 392 kb/s
    Writing application : VirtualDubMod 1.5.10.2 (build 2540/release)
    Writing library : VirtualDubMod build 2540/release
    TCOD : 0
    TCDO : 59433600000
    Video
    ID : 0
    Format : MPEG-4 Visual
    Format profile : Advanced Simple@L5
    Format settings, BVOP : 2
    Format settings, QPel : No
    Format settings, GMC : No warppoints
    Format settings, Matrix : Default (H.263)
    Muxing mode : Packed bitstream
    Codec ID : XVID
    Codec ID/Hint : XviD
    Duration : 1 h 39 min
    Bit rate : 994 kb/s
    Width : 526 pixels
    Height : 224 pixels
    Display aspect ratio : 2.35: 1
    Frame rate : 25.000 FPS
    Color space : YUV
    Chroma subsampling : 4: 2: 0
    Bit depth : 8 bits
    Scan type : Progressive
    Compression mode : Lossy
    Bits/(Pixel*Frame) : 0.337
    Stream size : 704 MiB (71%)
    Writing library : XviD 67
    Audio #1
    ID : 1
    Format : AC-3
    Format/Info : Audio Coding 3
    Format settings, Endianness : Big
    Codec ID : 2000
    Duration : 1 h 39 min
    Bit rate mode : Constant
    Bit rate : 192 kb/s
    Channel(s) : 2 channels
    Channel positions : Front: L R
    Sampling rate : 48.0 kHz
    Frame rate : 31.250 FPS (1536 SPF)
    Bit depth : 16 bits
    Compression mode : Lossy
    Stream size : 136 MiB (14%)
    Alignment : Split accross interleaves
    Interleave, duration : 40 ms (1.00 video frame)
    Interleave, preload duratio : 500 ms
    Service kind : Complete Main
    Audio #2
    ID : 2
    Format : AC-3
    Format/Info : Audio Coding 3
    Format settings, Endianness : Big
    Codec ID : 2000
    Duration : 1 h 39 min
    Bit rate mode : Constant
    Bit rate : 192 kb/s
    Channel(s) : 2 channels
    Channel positions : Front: L R
    Sampling rate : 48.0 kHz
    Frame rate : 31.250 FPS (1536 SPF)
    Bit depth : 16 bits
    Compression mode : Lossy
    Stream size : 136 MiB (14%)
    Alignment : Split accross interleaves
    Interleave, duration : 40 ms (1.00 video frame)
    Interleave, preload duratio : 500 ms
    Service kind : Complete Main


    Вышибала/The Bouncer (2016) HDTVRip [VO] [AD]
    загрузка...
    Рейтинг →
     (голосов: 1, оценка 5/5, голосовать можно 1 раз )

    Другие торренты по теме:

  • Шеннон Хейл | Вышибала "Козла–Зубоскала" (2015) [MP3] скачать через торрент бесплатно
  • Вышибала (2016) HDTVRip (сезон 1, серии 1-3 из 16) (Обновляемая)
  • Вышибала: Эпический замес / Goon: Last of the Enforcers (2017) WEB-DL [H.264 / 1080p-LQ] [EN]
  • Вышибала: Эпический замес / Goon: Last of the Enforcers (2017) WEB-DLRip [H.264 / 720p-LQ] [MVO] [AD]
  • Вышибала: Эпический замес / Goon: Last of the Enforcers (2017) WEB-DL [H.264 / 1080p-LQ] [AVO]
  • Вышибала: Эпический замес / Goon: Last of the Enforcers (2017) BDRemux [H.264 / 1080p] [EN / EN Sub]
  • Вышибала: Эпический замес / Goon: Last of the Enforcers (2017) BDRip [H.264 / 720p] [AVO]


    • Комментарии (0):

      Информация

      Информация

        Посетители, находящиеся в группе Гости, не могут оставлять комментарии в данной новости.

        ↓ Меню




        ↓ Опрос

        Вы добавили сайт в закладки?
        Да
        Нет


        Top 10 за месяц (Другое)