.
Авторизация | Регистрация
Хочешь лучшие торренты? Добавь свой email!
Добавить

Торрент скачать бесплатно

» » Трансформеры: Последний рыцарь / Transformers: The Last Knight (2017) BDRip 3D [H.264 / 1080p] [вертикальная анаморфная стереопара] [hand made 16:9] торрент скачать бесплатно




    Трансформеры: Последний рыцарь / Transformers: The Last Knight (2017) BDRip 3D [H.264 / 1080p] [вертикальная анаморфная стереопара] [hand made 16:9] торрент скачать бесплатно

    Опубликовал: Админ | Дата: 26-09-2017, 05:00 | Просмотров: 0

    Производство: США/Paramount Pictures
    Жанр: фантастика, боевик, триллер, приключения
    Режиссер: Майкл Бэй
    Продюсер: Майкл Бэй, Йен Брайс, Мэттью Кохан

    Актеры
    Марк Уолберг, Энтони Хопкинс, Джош Дюамель, Лора Хэддок, Сантьяго Кабрера, Изабела Монер, Джеррод Кармайкл, Стэнли Туччи, Лиам Гэрриган, Мартин МакКриди

    Описание

    Оптимус Прайм исчез. Люди ведут войну с Трансформерами. Ключ к нашему будущему погребен в тайнах прошлого, в скрытой истории Трансформеров на Земле… Миссия по спасению мира ложится на плечи разношерстной компании, состоящей из Кейда Йегера, Бамблби, английского лорда и профессора из Оксфорда. Пришла пора действовать! Жертвы станут героями. Герои станут злодеями. Выстоит только один мир: их или наш.

    Возраст: 12+ (зрителям, достигшим 12 лет)
    Рейтинг MPAA: PG-13 (детям до 13 лет просмотр нежелателен)
    Дата мировой премьеры: 21 июня 2017
    Премьера (РФ): 22 июня 2017, Централ Партнершип 3D

    Продолжительность: 02: 34: 31
    Качество: BDRip
    Перевод: Дублированный (iTunes)
    Субтитры: Русские (форсированные, полные), английские (полные)
    Видео: H.264/AVC, 1920x1080 ~10 Mbps
    Аудио: AC3, 6 ch, 384 kbps - Русский
    Аудио: AC3, 6 ch, 640 kbps - Английский

    Format : Matroska
    Format version : Version 4/Version 2
    File size : 11.9 GiB
    Duration : 2h 34mn
    Overall bit rate : 11.0 Mbps
    Movie name : TRANSFORMERS_TLK_3D.Title0
    Encoded date : UTC 2017-09-25 00: 31: 46
    Writing application : mkvmerge v9.8.0 (\'Kuglblids\') 64bit
    Writing library : libebml v1.3.4 + libmatroska v1.4.5
    Video
    ID : 1
    Format : AVC
    Format/Info : Advanced Video Codec
    Format profile : High@L4.1
    Format settings, CABAC : Yes
    Format settings, ReFrames : 4 frames
    Codec ID : V_MPEG4/ISO/AVC
    Duration : 2h 34mn
    Bit rate : 10 000 Kbps
    Width : 1 920 pixels
    Height : 1 080 pixels
    Display aspect ratio : 16: 9
    Frame rate mode : Constant
    Frame rate : 23.976 fps
    Color space : YUV
    Chroma subsampling : 4: 2: 0
    Bit depth : 8 bits
    Scan type : Progressive
    Bits/(Pixel*Frame) : 0.201
    Stream size : 10.6 GiB (89%)
    Writing library : x264 core 152 r2851M ba24899
    Encoding settings : cabac=1/ref=4/deblock=1: -3: -3/analyse=0x3: 0x113/me=umh/subme=10/psy=1/psy_rd=1.05: 0.10/mixed_ref=1/me_range=24/chroma_me=1/trellis=2/8x8dct=1/cqm=0/deadzone=21, 11/fast_pskip=0/chroma_qp_offset=-3/threads=5/lookahead_threads=1/sliced_threads=0/nr=0/decimate=1/interlaced=0/bluray_compat=0/constrained_intra=0/bframes=6/b_pyramid=2/b_adapt=2/b_bias=0/direct=1/weightb=1/open_gop=0/weightp=2/keyint=230/keyint_min=23/scenecut=40/intra_refresh=0/rc=2pass/mbtree=0/bitrate=10000/ratetol=1.0/qcomp=0.70/qpmin=3/qpmax=69/qpstep=4/cplxblur=20.0/qblur=0.5/ip_ratio=1.40/pb_ratio=1.30/aq=2: 1.00
    Default : Yes
    Forced : No
    Audio #1
    ID : 2
    Format : AC-3
    Format/Info : Audio Coding 3
    Mode extension : CM (complete main)
    Format settings, Endianness : Big
    Codec ID : A_AC3
    Duration : 2h 34mn
    Bit rate mode : Constant
    Bit rate : 384 Kbps
    Channel(s) : 6 channels
    Channel positions : Front: L C R, Side: L R, LFE
    Sampling rate : 48.0 KHz
    Bit depth : 16 bits
    Compression mode : Lossy
    Stream size : 425 MiB (3%)
    Language : Russian
    Default : Yes
    Forced : No
    Audio #2
    ID : 3
    Format : AC-3
    Format/Info : Audio Coding 3
    Mode extension : CM (complete main)
    Format settings, Endianness : Big
    Codec ID : A_AC3
    Duration : 2h 34mn
    Bit rate mode : Constant
    Bit rate : 640 Kbps
    Channel(s) : 6 channels
    Channel positions : Front: L C R, Side: L R, LFE
    Sampling rate : 48.0 KHz
    Bit depth : 16 bits
    Compression mode : Lossy
    Stream size : 708 MiB (6%)
    Language : English
    Default : No
    Forced : No
    Text #1
    ID : 4
    Format : UTF-8
    Codec ID : S_TEXT/UTF8
    Codec ID/Info : UTF-8 Plain Text
    Title : FORCED
    Language : Russian
    Default : Yes
    Forced : No
    Text #2
    ID : 5
    Format : UTF-8
    Codec ID : S_TEXT/UTF8
    Codec ID/Info : UTF-8 Plain Text
    Title : FULL
    Language : Russian
    Default : No
    Forced : No
    Text #3
    ID : 6
    Format : UTF-8
    Codec ID : S_TEXT/UTF8
    Codec ID/Info : UTF-8 Plain Text
    Title : FULL
    Language : English
    Default : No
    Forced : No

    Скриншоты для ознакомления



    Релизы фильма Трансформеры: Последний рыцарь/Transformers: The Last Knight на NNM Club
    Время раздачи: 24/7 (до первых 3-5 скачавших)

    Трансформеры: Последний рыцарь/Transformers: The Last Knight (2017) BDRip 3D [H.264/1080p] [вертикальная анаморфная стереопара] [hand made 16:9]
    загрузка...
    Рейтинг →
     (голосов: 1, оценка 3/5, голосовать можно 1 раз )

    Другие торренты по теме:

  • Трансформеры: Последний рыцарь / Transformers: The Last Knight (2017) BDRemux [H.264 / 1080p] [3D / 2D] [IMAX edition] [ISO]
  • Трансформеры: Последний рыцарь / Transformers: The Last Knight (2017) BDRip [H.264]
  • Трансформеры: Последний рыцарь / Transformers: The Last Knight (2017) Blu-ray [H.264 / 1080p] [IMAX edition]
  • Трансформеры: Последний рыцарь / Transformers: The Last Knight (2017) BDRemux [H.264 / 1080p] [IMAX edition]
  • Трансформеры: Последний рыцарь / Transformers: The Last Knight (2017) BDRemux [H.264 / 1080p] [IMAX edition]
  • Трансформеры: Последний рыцарь / Transformers: The Last Knight (2017) BDRip [H.264 / 1080p]
  • Трансформеры: Последний рыцарь / Transformers: The Last Knight (2017) BDRip [H.264]
  • Трансформеры: Последний рыцарь / Transformers: The Last Knight (2017) WEBRip [H.264 / 1080p] [Трейлер]


    • Комментарии (0):

      Информация

      Информация

        Посетители, находящиеся в группе Гости, не могут оставлять комментарии в данной новости.

        ↓ Меню




        ↓ Опрос

        Вы добавили сайт в закладки?
        Да
        Нет


        Top 10 за месяц (Другое)