.
Авторизация | Регистрация
Хочешь лучшие торренты? Добавь свой email!
Добавить

Торрент скачать бесплатно

» » Едва я открою глаза / A peine jouvre les yeux (2015) WEB-DLRip [AD] торрент скачать бесплатно




    Едва я открою глаза / A peine jouvre les yeux (2015) WEB-DLRip [AD] торрент скачать бесплатно

    Опубликовал: Админ | Дата: 22-09-2017, 05:00 | Просмотров: 0

    Производство: Тунис, Франция, Бельгия, ОАЭ/Arab Fund for Arts and Culture, Blue Monday Productions, Centre National de la Cinématographie (CNC)
    Жанр: Драма
    Режиссер: Лэйла Бузид

    Актеры
    Baya Medhaffer, Галия Бенали, Montassar Ayari, Lassaad Jamoussi, Aymen Omrani, Дина Абдельвахед, Youssef Soltana, Marwen Soltana, Najoua Mathouthi

    Описание

    Тунис, лето 2010 года, за несколько месяцев до Арабской весны. Восемнадцатилетняя Фара только что сдала выпускной экзамен, и родители очень надеются, что их дочь поступит в медицинский институт и станет врачом. Но Фаре не до этого. Она пишет политические песни, исполняет их в своей рок-группе и живёт на полную катушку. К ужасу своих родителей, которые прекрасно понимают, чем это может для неё закончиться.

    Релиз от: KOSHARA
    Продолжительность: 01: 45: 25
    Качество видео: WEB-DLRip
    Перевод: Многоголосый закадровый, любительский - Синема УС
    Субтитры: отсутствуют
    Реклама: присутствуют аудио и видео вставки рекламы
    Видео: Xvid, 720x400, ~1590 Kbps
    Аудио: AC3, 2 ch, 256 Kbps

    General
    Complete name : /media/win/TORRENT/UPLOAD TORRENTS/As.I.Open.My.Eyes.2015.WEBDLRip.avi
    Format : AVI
    Format/Info : Audio Video Interleave
    File size : 1.37 GiB
    Duration : 1 h 45 min
    Overall bit rate : 1 856 kb/s
    Writing application : VirtualDubMod 1.5.10.2 (build 2540/release)
    Writing library : VirtualDubMod build 2540/release
    Video
    ID : 0
    Format : MPEG-4 Visual
    Format profile : Advanced Simple@L5
    Format settings, BVOP : 2
    Format settings, QPel : No
    Format settings, GMC : No warppoints
    Format settings, Matrix : Default (MPEG)
    Codec ID : XVID
    Codec ID/Hint : XviD
    Duration : 1 h 45 min
    Bit rate : 1 591 kb/s
    Width : 720 pixels
    Height : 400 pixels
    Display aspect ratio : 16: 9
    Frame rate : 23.976 (24000/1001) FPS
    Color space : YUV
    Chroma subsampling : 4: 2: 0
    Bit depth : 8 bits
    Scan type : Progressive
    Compression mode : Lossy
    Bits/(Pixel*Frame) : 0.230
    Stream size : 1.17 GiB (86%)
    Writing library : XviD 1.2.1 (UTC 2008-12-04)
    Audio
    ID : 1
    Format : AC-3
    Format/Info : Audio Coding 3
    Format settings, Endianness : Big
    Codec ID : 2000
    Duration : 1 h 45 min
    Bit rate mode : Constant
    Bit rate : 256 kb/s
    Channel(s) : 2 channels
    Channel positions : Front: L R
    Sampling rate : 48.0 kHz
    Frame rate : 31.250 FPS (1536 SPF)
    Bit depth : 16 bits
    Compression mode : Lossy
    Stream size : 193 MiB (14%)
    Alignment : Split accross interleaves
    Interleave, duration : 42 ms (1.00 video frame)
    Interleave, preload duration : 500 ms
    Service kind : Complete Main


    Едва я открою глаза/A peine jouvre les yeux (2015) WEB-DLRip [AD]
    загрузка...
    Рейтинг →
     (голосов: 1, оценка 4/5, голосовать можно 1 раз )

    Другие торренты по теме:



      Комментарии (0):

      Информация

      Информация

        Посетители, находящиеся в группе Гости, не могут оставлять комментарии в данной новости.

        ↓ Меню




        ↓ Опрос

        Вы добавили сайт в закладки?
        Да
        Нет


        Top 10 за месяц (Другое)