.
Авторизация | Регистрация
Хочешь лучшие торренты? Добавь свой email!
Добавить

Торрент скачать бесплатно

» » Отец / Babai (2015) WEB-DLRip [MVO] [AD] торрент скачать бесплатно




    Отец / Babai (2015) WEB-DLRip [MVO] [AD] торрент скачать бесплатно

    Опубликовал: Админ | Дата: 22-09-2017, 05:00 | Просмотров: 0

    Производство: Германия, Косово, Македония, Франция/Eaux-Vives Productions, Kosova Cinematography Center, NiKo Film
    Жанр: Драма
    Режиссер: Висар Морина

    Актеры
    Вэл Малоку, Астрит Кабасхи, Adriana Matoshi, Энвер Петровци, Джевдет Ясари, Эшреф Дурмиши, Armend Smajli

    Описание

    10-летний Нори вынужден рано повзрослеть — его мать умерла, а отец бросил его в Косово в 1990-х. После опасного, богатого событиями путешествия Нори наконец добирается до Германии и воссоединяется с отцом, но он не может понять, как тот мог его оставить. Тем временем, шансы, что они смогут остаться в Германии, выглядят слабо — ходатайство отца об убежище отклонено.

    Релиз от: KOSHARA
    Продолжительность: 01: 40: 49
    Качество видео: WEB-DLRip
    Перевод: Многоголосый закадровый, любительский
    Субтитры: отсутствуют
    Реклама: присутствуют аудио и видео вставки рекламы
    Видео: Xvid, 720x304, ~1547 Kbps
    Аудио: AC3, 2 ch, 384 Kbps

    General
    Complete name : /media/win/TORRENT/UPLOAD TORRENTS/babai.2015.WEDLRip.avi
    Format : AVI
    Format/Info : Audio Video Interleave
    File size : 1.37 GiB
    Duration : 1 h 40 min
    Overall bit rate : 1 941 kb/s
    Writing application : VirtualDubMod 1.5.10.2 (build 2540/release)
    Writing library : VirtualDubMod build 2540/release
    Video
    ID : 0
    Format : MPEG-4 Visual
    Format profile : Advanced Simple@L5
    Format settings, BVOP : 2
    Format settings, QPel : No
    Format settings, GMC : No warppoints
    Format settings, Matrix : Default (MPEG)
    Codec ID : XVID
    Codec ID/Hint : XviD
    Duration : 1 h 40 min
    Bit rate : 1 548 kb/s
    Width : 720 pixels
    Height : 304 pixels
    Display aspect ratio : 2.35: 1
    Frame rate : 23.976 (24000/1001) FPS
    Color space : YUV
    Chroma subsampling : 4: 2: 0
    Bit depth : 8 bits
    Scan type : Progressive
    Compression mode : Lossy
    Bits/(Pixel*Frame) : 0.295
    Stream size : 1.09 GiB (80%)
    Writing library : XviD 1.2.1 (UTC 2008-12-04)
    Audio
    ID : 1
    Format : AC-3
    Format/Info : Audio Coding 3
    Format settings, Endianness : Big
    Codec ID : 2000
    Duration : 1 h 40 min
    Bit rate mode : Constant
    Bit rate : 384 kb/s
    Channel(s) : 2 channels
    Channel positions : Front: L R
    Sampling rate : 48.0 kHz
    Frame rate : 31.250 FPS (1536 SPF)
    Bit depth : 16 bits
    Compression mode : Lossy
    Stream size : 277 MiB (20%)
    Alignment : Split accross interleaves
    Interleave, duration : 42 ms (1.00 video frame)
    Interleave, preload duration : 500 ms
    Service kind : Complete Main


    Отец/Babai (2015) WEB-DLRip [MVO] [AD]
    загрузка...
    Рейтинг →
     (голосов: 1, оценка 3/5, голосовать можно 1 раз )

    Другие торренты по теме:

  • Отец Матвей (2014) SATRip (серии 1-8 из 16) (Обновляемая)
  • Отец Матвей (2014) SATRip [H.264] (Сезон 1, Серия 1-8 из 16) (Обновляемая)
  • Крестный отец: Трилогия / The Godfather: Trilogy (1972,1974,1990) BDRip [H.264 / 720p-LQ] [Hi10P] скачать через торрент бесплатно
  • Разрешите тебя поцеловать… отец невесты (2014) SATRip
  • Разрешите тебя поцеловать… отец невесты (2014) WEB-DLRip [H.264] скачать через торрент бесплатно
  • Отец (Святой праведный Иоанн Кронштадтский) (1991) DVD5 скачать через торрент бесплатно
  • Разрешите тебя поцеловать… отец невесты (2014) WEB-DLRip [576p] iPad скачать через торрент бесплатно
  • Отец солдата (1964) HDTVRip [720p] [Цветная версия] скачать через торрент бесплатно


    • Комментарии (0):

      Информация

      Информация

        Посетители, находящиеся в группе Гости, не могут оставлять комментарии в данной новости.

        ↓ Меню




        ↓ Опрос

        Вы добавили сайт в закладки?
        Да
        Нет


        Top 10 за месяц (Другое)