.
Авторизация | Регистрация
Хочешь лучшие торренты? Добавь свой email!
Добавить

Торрент скачать бесплатно

» » Не терять лицо / La Face (2016) DVBRip [VO] торрент скачать бесплатно




    Не терять лицо / La Face (2016) DVBRip [VO] торрент скачать бесплатно

    Опубликовал: Админ | Дата: 21-09-2017, 05:00 | Просмотров: 0

    Производство: Франция, Бельгия, Швейцария
    Жанр: Детектив
    Режиссер: Марк Ривьер

    Актеры
    Бруно Соло, Джулия Фор, Ипполит Жирардо, Виктор Понтекорво, Флоранс Кост, Марк Дюре

    Описание

    Прокурор Поль Бертье - единственный свидетель того, как случайно утонула молодая девушка. Но дело считают преступлением, и ему поручено его расследование. В первую очередь арестован Гийом Вобан, бывший бойфренд жертвы и сын местного богача. А Бертье молчит и не вмешивается...

    Релиз от: tornado /
    Продолжительность: 01: 31: 26
    Качество видео: DVBRip
    Перевод: Одноголосый закадровый (tornado)
    Субтитры: Отсутствуют
    Реклама: Короткая аудореклама
    Видео: Xvid, 720х576@1024х576, ~933 Kbps
    Аудио: AC3, 2 ch, 192 Kbps

    Format : AVI
    Format/Info : Audio Video Interleave
    File size : 738 MiB
    Duration : 1 h 31 min
    Overall bit rate : 1 134 kb/s
    Writing application : VirtualDubMod 1.5.10.2 (build 2540/release)
    Writing library : VirtualDubMod build 2540/release
    Video
    ID : 0
    Format : MPEG-4 Visual
    Format profile : Advanced Simple@L5
    Format settings, BVOP : 1
    Format settings, QPel : No
    Format settings, GMC : No warppoints
    Format settings, Matrix : Default (H.263)
    Muxing mode : Packed bitstream
    Codec ID : XVID
    Codec ID/Hint : XviD
    Duration : 1 h 31 min
    Bit rate : 933 kb/s
    Width : 720 pixels
    Height : 576 pixels
    Display aspect ratio : 16: 9
    Frame rate : 25.000 FPS
    Standard : PAL
    Color space : YUV
    Chroma subsampling : 4: 2: 0
    Bit depth : 8 bits
    Scan type : Progressive
    Compression mode : Lossy
    Bits/(Pixel*Frame) : 0.090
    Stream size : 607 MiB (82%)
    Writing library : XviD 67
    Audio
    ID : 1
    Format : AC-3
    Format/Info : Audio Coding 3
    Format settings, Endianness : Big
    Codec ID : 2000
    Duration : 1 h 31 min
    Bit rate mode : Constant
    Bit rate : 192 kb/s
    Channel(s) : 2 channels
    Channel positions : Front: L R
    Sampling rate : 48.0 kHz
    Frame rate : 31.250 FPS (1536 SPF)
    Bit depth : 16 bits
    Compression mode : Lossy
    Stream size : 125 MiB (17%)
    Alignment : Split accross interleaves
    Interleave, duration : 40 ms (1.00 video frame)
    Interleave, preload duratio : 500 ms
    Service kind : Complete Main


    Не терять лицо/La Face (2016) DVBRip [VO]
    загрузка...
    Рейтинг →
     (голосов: 1, оценка 5/5, голосовать можно 1 раз )

    Другие торренты по теме:

  • Нечего терять / Nothing to Lose (1997) HDTVRip скачать через торрент бесплатно
  • Alternativa / Альтернатива: Нечего терять (2011) [Ru] (1.7.5.808) Repack R.G. Catalyst
  • Нечего терять / Nothing to Lose (1997) WEB-DL [H.264 / 1080p]
  • Нечего терять / Nothing to Lose (1997) WEB-DLRip [H.264]


    • Комментарии (0):

      Информация

      Информация

        Посетители, находящиеся в группе Гости, не могут оставлять комментарии в данной новости.

        ↓ Меню




        ↓ Опрос

        Вы добавили сайт в закладки?
        Да
        Нет


        Top 10 за месяц (Другое)