.
Авторизация | Регистрация
Хочешь лучшие торренты? Добавь свой email!
Добавить

Торрент скачать бесплатно

» » Пробираясь сквозь рожь / Coming Through the Rye (2015) WEB-DLRip [MVO] [AD] торрент скачать бесплатно




    Пробираясь сквозь рожь / Coming Through the Rye (2015) WEB-DLRip [MVO] [AD] торрент скачать бесплатно

    Опубликовал: Админ | Дата: 21-09-2017, 05:00 | Просмотров: 0

    Производство: США/Cold Beer Friday, Life Out Loud Films (LOL), Red Hat FIlms
    Жанр: Драма
    Режиссер: Джеймс Стивен Сэдвидж

    Актеры
    Алекс Вулф, Стефания Оуэн, Крис Купер, Джейкоб Лейнбах, Эрик Нелсен, Джейкоб Родс, Кэбби Бордерс, Коллин Ленфест, Майкл Сиберри, Зефир Бенсон

    Описание

    В 1969 году одержимый Холденом Колфилдом Джейми Шварц убегает из школы-интерната, чтобы найти писателя-затворника Дж. Д. Сэлинджера. Джейми ждет настоящее путешествие, полное любви и потерь.

    Рейтинг MPAA: PG-13 (детям до 13 лет просмотр нежелателен)
    Релиз от: KOSHARA
    Продолжительность: 01: 37: 45
    Качество видео: WEB-DLRip
    Перевод: Многоголосый закадровый
    Субтитры: отсутствуют
    Реклама: присутствуют аудио и видео вставки рекламы
    Видео: Xvid, 720x304, ~1608 Kbps
    Аудио: AC3, 2 ch, 384 Kbps

    General
    Complete name : /media/win/TORRENT/UPLOAD TORRENTS/Coming.Through.the.Rye.2015.avi
    Format : AVI
    Format/Info : Audio Video Interleave
    File size : 1.37 GiB
    Duration : 1 h 37 min
    Overall bit rate : 2 002 kb/s
    Writing application : VirtualDubMod 1.5.10.2 (build 2540/release)
    Writing library : VirtualDubMod build 2540/release
    Video
    ID : 0
    Format : MPEG-4 Visual
    Format profile : Advanced Simple@L5
    Format settings, BVOP : 2
    Format settings, QPel : No
    Format settings, GMC : No warppoints
    Format settings, Matrix : Default (MPEG)
    Codec ID : XVID
    Codec ID/Hint : XviD
    Duration : 1 h 37 min
    Bit rate : 1 609 kb/s
    Width : 720 pixels
    Height : 304 pixels
    Display aspect ratio : 2.35: 1
    Frame rate : 23.976 (24000/1001) FPS
    Color space : YUV
    Chroma subsampling : 4: 2: 0
    Bit depth : 8 bits
    Scan type : Progressive
    Compression mode : Lossy
    Bits/(Pixel*Frame) : 0.307
    Stream size : 1.10 GiB (80%)
    Writing library : XviD 1.2.1 (UTC 2008-12-04)
    Audio
    ID : 1
    Format : AC-3
    Format/Info : Audio Coding 3
    Format settings, Endianness : Big
    Codec ID : 2000
    Duration : 1 h 37 min
    Bit rate mode : Constant
    Bit rate : 384 kb/s
    Channel(s) : 2 channels
    Channel positions : Front: L R
    Sampling rate : 48.0 kHz
    Frame rate : 31.250 FPS (1536 SPF)
    Bit depth : 16 bits
    Compression mode : Lossy
    Stream size : 268 MiB (19%)
    Alignment : Split accross interleaves
    Interleave, duration : 42 ms (1.00 video frame)
    Interleave, preload duration : 500 ms
    Service kind : Complete Main

    Скриншоты для ознакомления



    Все одноименные релизы в Клубе
    Время раздачи: с 09: 00 до 22: 00 до пяти скачавших (до появления первых 3-5 скачавших)

    Пробираясь сквозь рожь/Coming Through the Rye (2015) WEB-DLRip [MVO] [AD]
    загрузка...
    Рейтинг →
     (голосов: 1, оценка 3/5, голосовать можно 1 раз )

    Другие торренты по теме:



      Комментарии (0):

      Информация

      Информация

        Посетители, находящиеся в группе Гости, не могут оставлять комментарии в данной новости.

        ↓ Меню




        ↓ Опрос

        Вы добавили сайт в закладки?
        Да
        Нет


        Top 10 за месяц (Другое)