.
Авторизация | Регистрация
Хочешь лучшие торренты? Добавь свой email!
Добавить

Торрент скачать бесплатно

» » Симон прощается со своей крайней плотью / Simon sagt «Auf Wiedersehen» zu seiner Vorhaut (2015) DVDRip [VO] торрент скачать бесплатно




    Симон прощается со своей крайней плотью / Simon sagt «Auf Wiedersehen» zu seiner Vorhaut (2015) DVDRip [VO] торрент скачать бесплатно

    Опубликовал: Админ | Дата: 20-09-2017, 05:00 | Просмотров: 0

    Производство: Германия
    Жанр: Комедия
    Режиссер: Вивиан Андерегген

    Актеры
    Мартин Брюкер, Имке Бюхель, Катрин де Леан, Анна-Лена Долл, Максимилиан Эренрайх, Юдит Энгель, Тристан Гёбель, Петер Йордан, Юрий Вёльш, Флориан Штеттер, Лавиния Вильсон

    Описание

    Мальчик Симон родился в семье немецких евреев и ему не позавидуешь. Его родители весьма своеобразные люди: папа благочинный правоверный иудей, а мама женщина современная, свободных атеистических нравов и на досуге сочиняет эротические романы. Родители постоянно ссорятся, и с самого рождения сына придерживаются диаметрально противоположных взглядов на его воспитание. Симону через несколько дней исполняется 13 лет, и отец настроен решительно: по религиозной традиции 13 лет - это бар-мицва, вступление мальчика во взрослую жизнь, и он должен сделать обрезание. Мать категорически против, а сам Симон пребывает в противоречивых чувствах, сомнениях и смятении, потому что в их иудейской общине неожиданно появляется новый раввин, и им оказывается обворожительная молодая женщина, в которую Симон без памяти влюбляется...

    Релиз от: tornado /
    Продолжительность: 01: 21: 44
    Качество видео: DVDRip
    Перевод: Одноголосый закадровый (tornado)
    Субтитры: Отсутствуют
    Реклама: Присутствует короткая аудиореклама
    Видео: Xvid, 720х416, ~2356 Kbps
    Аудио: AC3, 2 ch, 192 Kbps rus
    Аудио2: AC3, 2 ch, 192 Kbps ger

    Format : AVI
    Format/Info : Audio Video Interleave
    File size : 1.57 GiB
    Duration : 1 h 21 min
    Overall bit rate : 2 754 kb/s
    Writing application : VirtualDubMod 1.5.10.2 (build 2540/release)
    Writing library : VirtualDubMod build 2540/release
    Video
    ID : 0
    Format : MPEG-4 Visual
    Format profile : Advanced Simple@L5
    Format settings, BVOP : No
    Format settings, QPel : No
    Format settings, GMC : No warppoints
    Format settings, Matrix : Custom
    Codec ID : XVID
    Codec ID/Hint : XviD
    Duration : 1 h 21 min
    Bit rate : 2 356 kb/s
    Width : 720 pixels
    Height : 416 pixels
    Display aspect ratio : 1.731
    Frame rate : 25.000 FPS
    Color space : YUV
    Chroma subsampling : 4: 2: 0
    Bit depth : 8 bits
    Scan type : Progressive
    Compression mode : Lossy
    Bits/(Pixel*Frame) : 0.315
    Stream size : 1.34 GiB (86%)
    Writing library : XviD 67
    Audio #1
    ID : 1
    Format : AC-3
    Format/Info : Audio Coding 3
    Format settings, Endianness : Big
    Codec ID : 2000
    Duration : 1 h 21 min
    Bit rate mode : Constant
    Bit rate : 192 kb/s
    Channel(s) : 2 channels
    Channel positions : Front: L R
    Sampling rate : 48.0 kHz
    Frame rate : 31.250 FPS (1536 SPF)
    Bit depth : 16 bits
    Compression mode : Lossy
    Stream size : 112 MiB (7%)
    Alignment : Split accross interleaves
    Interleave, duration : 40 ms (1.00 video frame)
    Interleave, preload duratio : 500 ms
    Service kind : Complete Main
    Audio #2
    ID : 2
    Format : AC-3
    Format/Info : Audio Coding 3
    Format settings, Endianness : Big
    Codec ID : 2000
    Duration : 1 h 21 min
    Bit rate mode : Constant
    Bit rate : 192 kb/s
    Channel(s) : 2 channels
    Channel positions : Front: L R
    Sampling rate : 48.0 kHz
    Frame rate : 31.250 FPS (1536 SPF)
    Bit depth : 16 bits
    Compression mode : Lossy
    Stream size : 112 MiB (7%)
    Alignment : Split accross interleaves
    Interleave, duration : 40 ms (1.00 video frame)
    Interleave, preload duratio : 500 ms
    Service kind : Complete Main


    Симон прощается со своей крайней плотью/Simon sagt «Auf Wiedersehen» zu seiner Vorhaut (2015) DVDRip [VO]
    загрузка...
    Рейтинг →
     (голосов: 1, оценка 5/5, голосовать можно 1 раз )

    Другие торренты по теме:

  • Елена Ласкари | От 0 до 80. Симон Шноль (2011) [MP3]
  • Симон Кармиггелт | Несколько бесполезных соображений (1985) [FB2, RTF]
  • В. Семенов (сост.) | Великие утописты: Сен-Симон, Фурье и их школы (1926) [DJVU]
  • Симон Соловейчик | Про пионеров (1981) [PDF, DJVU]
  • А. Симон и др. | О тех, кто предал Францию (1941) [PDF]


    • Комментарии (0):

      Информация

      Информация

        Посетители, находящиеся в группе Гости, не могут оставлять комментарии в данной новости.

        ↓ Меню




        ↓ Опрос

        Вы добавили сайт в закладки?
        Да
        Нет


        Top 10 за месяц (Другое)