.
Авторизация | Регистрация
Хочешь лучшие торренты? Добавь свой email!
Добавить

Торрент скачать бесплатно

» » Рико, Оскар и дело о разбитом сердце / Rico, Oskar und das Herzgebreche (2015) HDRip [VO] торрент скачать бесплатно




    Рико, Оскар и дело о разбитом сердце / Rico, Oskar und das Herzgebreche (2015) HDRip [VO] торрент скачать бесплатно

    Опубликовал: Админ | Дата: 20-09-2017, 05:00 | Просмотров: 0

    Производство: Германия
    Жанр: Комедия, Семейный
    Режиссер: Вольфганг Гроос

    Актеры
    Антон Петцольд, Юрий Уинклер, Каролина Херфурт, Хенри Хюбхен, Мориц Бляйбтрой, Катарина Тальбах, Рональд Церфельд, Милан Пешель, Урсела Монн, Гения Рикова

    Описание

    Рико и его друг Оскар — знаменитые детективы своего города. Всё потому, что однажды им удалось вычислить и поймать похитителя детей, Мистера 2000. Это осталось в прошлом, жизнь ребят понемногу меняется. И тем не менее, интерес героев ко всему подозрительному не угасает.

    Релиз от: tornado /
    Продолжительность: 01: 34: 57
    Качество видео: HDRip
    Перевод: Одноголосый закадровый (tornado)
    Субтитры: Отсутствуют
    Реклама: Короткая аудиореклама
    Видео: Xvid, 720х304, ~1562 Kbps
    Аудио: AC3, 2 ch, 192 Kbps rus
    Аудио2: AC3, 6 ch, 448 Kbps ger

    Format : AVI
    Format/Info : Audio Video Interleave
    File size : 1.47 GiB
    Duration : 1 h 34 min
    Overall bit rate : 2 216 kb/s
    Writing application : VirtualDubMod 1.5.10.2 (build 2540/release)
    Writing library : VirtualDubMod build 2540/release
    Video
    ID : 0
    Format : MPEG-4 Visual
    Format profile : Advanced Simple@L5
    Format settings, BVOP : 2
    Format settings, QPel : No
    Format settings, GMC : No warppoints
    Format settings, Matrix : Default (MPEG)
    Codec ID : XVID
    Codec ID/Hint : XviD
    Duration : 1 h 34 min
    Bit rate : 1 562 kb/s
    Width : 720 pixels
    Height : 304 pixels
    Display aspect ratio : 2.35: 1
    Frame rate : 23.976 (24000/1001) FPS
    Color space : YUV
    Chroma subsampling : 4: 2: 0
    Bit depth : 8 bits
    Scan type : Progressive
    Compression mode : Lossy
    Bits/(Pixel*Frame) : 0.298
    Stream size : 1.04 GiB (70%)
    Writing library : XviD 67
    Audio #1
    ID : 1
    Format : AC-3
    Format/Info : Audio Coding 3
    Format settings, Endianness : Big
    Codec ID : 2000
    Duration : 1 h 34 min
    Bit rate mode : Constant
    Bit rate : 192 kb/s
    Channel(s) : 2 channels
    Channel positions : Front: L R
    Sampling rate : 48.0 kHz
    Frame rate : 31.250 FPS (1536 SPF)
    Bit depth : 16 bits
    Compression mode : Lossy
    Stream size : 130 MiB (9%)
    Alignment : Split accross interleaves
    Interleave, duration : 42 ms (1.00 video frame)
    Interleave, preload duratio : 500 ms
    Service kind : Complete Main
    Audio #2
    ID : 2
    Format : AC-3
    Format/Info : Audio Coding 3
    Format settings, Endianness : Big
    Codec ID : 2000
    Duration : 1 h 34 min
    Bit rate mode : Constant
    Bit rate : 448 kb/s
    Channel(s) : 6 channels
    Channel positions : Front: L C R, Side: L R, LFE
    Sampling rate : 48.0 kHz
    Frame rate : 31.250 FPS (1536 SPF)
    Bit depth : 16 bits
    Compression mode : Lossy
    Stream size : 304 MiB (20%)
    Alignment : Split accross interleaves
    Interleave, duration : 42 ms (1.00 video frame)
    Interleave, preload duratio : 500 ms
    Service kind : Complete Main


    Рико, Оскар и дело о разбитом сердце/Rico, Oskar und das Herzgebreche (2015) HDRip [VO]
    загрузка...
    Рейтинг →
     (голосов: 1, оценка 3/5, голосовать можно 1 раз )

    Другие торренты по теме:

  • Рико, Оскар и тени темнее тёмного / Rico, Oskar und die Tieferschatten (2014) HDRip скачать через торрент бесплатно
  • Рико, Оскар и тени темнее тёмного / Rico, Oskar und die Tieferschatten (2014) BDRip [H.264 / 720p] [VO] скачать через торрент бесплатно


    • Комментарии (0):

      Информация

      Информация

        Посетители, находящиеся в группе Гости, не могут оставлять комментарии в данной новости.

        ↓ Меню




        ↓ Опрос

        Вы добавили сайт в закладки?
        Да
        Нет


        Top 10 за месяц (Другое)