.
Авторизация | Регистрация
Хочешь лучшие торренты? Добавь свой email!
Добавить

Торрент скачать бесплатно

» » Пираты Карибского моря: Мертвецы не рассказывают сказки / Pirates of the Caribbean: Dead Men Tell No Tale (2017) BDRip [H.264 / 720p] [Hand Made 60fps] торрент скачать бесплатно




    Пираты Карибского моря: Мертвецы не рассказывают сказки / Pirates of the Caribbean: Dead Men Tell No Tale (2017) BDRip [H.264 / 720p] [Hand Made 60fps] торрент скачать бесплатно

    Опубликовал: Админ | Дата: 19-09-2017, 05:00 | Просмотров: 0

    Жанр: Фэнтези, Боевик, Комедия, Приключения
    Режиссер: Хоаким Роннинг, Эспен Сандберг

    Актеры
    Джонни Депп, Хавьер Бардем, Джеффри Раш, Брентон Туэйтс, Кая Скоделарио, Кевин МакНэлли, Голшифте Фарахани, Дэвид Уэнэм, Стивен Грэм, Энгус Барнетт

    Описание

    Исчерпавший свою удачу капитан Джек Воробей обнаруживает, что за ним охотится его старый неприятель, ужасный капитан Салазар и его призрачные пираты. Они только что сбежали из Дьявольского треугольника и намерены уничтожить всех пиратов, включая Джека. Поможет спастись лишь могущественный артефакт — трезубец Посейдона, который дарует своему обладателю полный контроль над морями.

    Возраст: 16+ (зрителям, достигшим 16 лет)
    Рейтинг MPAA: PG-13 (детям до 13 лет просмотр нежелателен)
    Дата мировой премьеры: 11 мая 2017
    Дата российской премьеры: 25 мая 2017
    Дата выхода DVD/Blu-ray релиза: 19 сентября 2017
    Релиз от: NNNB Автор: envy
    Продолжительность: 02: 09: 07
    Качество видео: BDRip
    Перевод: Дублированный
    Субтитры: Русские, русские (форсированные), английские
    Видео: AVC/H.264, 1280x534, ~6482 kbps
    Аудио: 1 AC3, 6 ch, 640 kbps - Rus
    Аудио: 2 AC3, 6 ch, 640 kbps - Eng

    Format : Matroska
    Format version : Version 2
    File size : 7.14 GiB
    Duration : 2 h 9 min
    Overall bit rate : 7 920 kb/s
    Movie name : Pirates of the Caribbean: Dead Men Tell No Tales.(2017).BDRip.720p.envy.60fps
    Encoded date : UTC 2017-09-16 14: 21: 14
    Writing application : mkvmerge v5.8.0 (\'No Sleep/Pillow\') built on Sep 2 2012 15: 37: 04
    Writing library : libebml v1.2.3 + libmatroska v1.3.0
    Video
    ID : 1
    Format : AVC
    Format/Info : Advanced Video Codec
    Format profile : High@L4.1
    Format settings, CABAC : Yes
    Format settings, RefFrames : 9 frames
    Codec ID : V_MPEG4/ISO/AVC
    Duration : 2 h 9 min
    Bit rate : 6 482 kb/s
    Width : 1 280 pixels
    Height : 534 pixels
    Display aspect ratio : 2.40: 1
    Frame rate mode : Constant
    Frame rate : 60.000 FPS
    Color space : YUV
    Chroma subsampling : 4: 2: 0
    Bit depth : 8 bits
    Scan type : Progressive
    Bits/(Pixel*Frame) : 0.158
    Stream size : 5.85 GiB (82%)
    Title : Pirates of the Caribbean: Dead Men Tell No Tales.(2017).BDRip.720p.envy.60fps
    Writing library : x264 core 146 r2538 121396c
    Encoding settings : cabac=1/ref=9/deblock=1: 0: 0/analyse=0x3: 0x113/me=umh/subme=11/psy=1/psy_rd=1.00: 0.00/mixed_ref=1/me_range=32/chroma_me=1/trellis=2/8x8dct=1/cqm=0/deadzone=21, 11/fast_pskip=0/chroma_qp_offset=-2/threads=12/lookahead_threads=1/sliced_threads=0/nr=0/decimate=1/interlaced=0/bluray_compat=0/constrained_intra=0/bframes=5/b_pyramid=2/b_adapt=2/b_bias=0/direct=3/weightb=1/open_gop=0/weightp=2/keyint=250/keyint_min=25/scenecut=40/intra_refresh=0/rc=crf/mbtree=0/crf=16.6/qcomp=0.60/qpmin=0/qpmax=69/qpstep=4/ip_ratio=1.40/pb_ratio=1.30/aq=3: 1.00
    Language : English
    Default : Yes
    Forced : No
    Audio #1
    ID : 2
    Format : AC-3
    Format/Info : Audio Coding 3
    Format settings, Endianness : Big
    Codec ID : A_AC3
    Duration : 2 h 9 min
    Bit rate mode : Constant
    Bit rate : 640 kb/s
    Channel(s) : 6 channels
    Channel positions : Front: L C R, Side: L R, LFE
    Sampling rate : 48.0 kHz
    Frame rate : 31.250 FPS (1536 SPF)
    Bit depth : 16 bits
    Compression mode : Lossy
    Stream size : 591 MiB (8%)
    Title : Dub
    Language : Russian
    Service kind : Complete Main
    Default : Yes
    Forced : No
    Audio #2
    ID : 3
    Format : AC-3
    Format/Info : Audio Coding 3
    Format settings, Endianness : Big
    Codec ID : A_AC3
    Duration : 2 h 9 min
    Bit rate mode : Constant
    Bit rate : 640 kb/s
    Channel(s) : 6 channels
    Channel positions : Front: L C R, Side: L R, LFE
    Sampling rate : 48.0 kHz
    Frame rate : 31.250 FPS (1536 SPF)
    Bit depth : 16 bits
    Compression mode : Lossy
    Stream size : 591 MiB (8%)
    Title : Eng
    Language : English
    Service kind : Complete Main
    Default : No
    Forced : No
    Text #1
    ID : 4
    Format : UTF-8
    Codec ID : S_TEXT/UTF8
    Codec ID/Info : UTF-8 Plain Text
    Title : Rus forced
    Language : Russian
    Default : Yes
    Forced : Yes
    Text #2
    ID : 5
    Format : UTF-8
    Codec ID : S_TEXT/UTF8
    Codec ID/Info : UTF-8 Plain Text
    Title : Rus full
    Language : Russian
    Default : No
    Forced : No
    Text #3
    ID : 6
    Format : UTF-8
    Codec ID : S_TEXT/UTF8
    Codec ID/Info : UTF-8 Plain Text
    Title : Eng full
    Language : English
    Default : No
    Forced : No
    Menu
    00: 00: 00.000 : : Chapter 01
    00: 05: 49.515 : : Chapter 02
    00: 08: 34.222 : : Chapter 03
    00: 13: 40.820 : : Chapter 04
    00: 16: 29.154 : : Chapter 05
    00: 22: 33.852 : : Chapter 06
    00: 25: 19.267 : : Chapter 07
    00: 28: 06.101 : : Chapter 08
    00: 31: 41.774 : : Chapter 09
    00: 33: 44.814 : : Chapter 10
    00: 37: 02.053 : : Chapter 11
    00: 42: 27.711 : : Chapter 12
    00: 49: 09.071 : : Chapter 13
    00: 54: 00.278 : : Chapter 14
    00: 57: 19.394 : : Chapter 15
    01: 00: 38.718 : : Chapter 16
    01: 08: 29.939 : : Chapter 17
    01: 11: 57.021 : : Chapter 18
    01: 16: 50.939 : : Chapter 19
    01: 19: 27.471 : : Chapter 20
    01: 25: 04.808 : : Chapter 21
    01: 27: 42.173 : : Chapter 22
    01: 31: 43.789 : : Chapter 23
    01: 38: 22.813 : : Chapter 24
    01: 42: 36.775 : : Chapter 25
    01: 47: 23.562 : : Chapter 26
    01: 52: 58.688 : : Chapter 27
    01: 59: 09.934 : : Chapter 28


    Пираты Карибского моря: Мертвецы не рассказывают сказки/Pirates of the Caribbean: Dead Men Tell No Tale (2017) BDRip [H.264/720p] [Hand Made 60fps]
    загрузка...
    Рейтинг →
     (голосов: 1, оценка 5/5, голосовать можно 1 раз )

    Другие торренты по теме:

  • Пираты Карибского моря: Квадрология / Pirates of the Caribbean: Quadrilogy (2003,2006,2007,2011) BDRip [720p] скачать через торрент бесплатно
  • Пираты Карибского моря: Квадрология / Pirates of the Caribbean: Quadrilogy (2003-2011) HDRip [H.264] [MP4|960х400] скачать через торрент бесплатно
  • Пираты Карибского моря: Проклятие Черной жемчужины / Pirates of the Caribbean: The Curse of the Black Pearl (2003) BDRip [H.264 / 1080p-LQ]
  • Пираты Карибского моря: Сундук мертвеца / Pirates of the Caribbean: Dead Mans Chest (2006) BDRip [H.264 / 1080p-LQ]
  • Пираты Карибского моря: На краю Света / Pirates of the Caribbean: At Worlds End (2007) BDRip [H.264 / 1080p-LQ]
  • Пираты Карибского моря: На странных берегах / Pirates Of The Caribbean: On Stranger Tides (2011) HDRip [AVO]
  • Пираты Карибского моря: Проклятие Черной жемчужины / Pirates of the Caribbean: The Curse of the Black Pearl (2003) BDRip [H.265 / 1080p] [US Edition]
  • Пираты Карибского моря: На краю Света / Pirates of the Caribbean: At Worlds End (2007) BDRip [H.265 / 1080p-LQ]


    • Комментарии (0):

      Информация

      Информация

        Посетители, находящиеся в группе Гости, не могут оставлять комментарии в данной новости.

        ↓ Меню




        ↓ Опрос

        Вы добавили сайт в закладки?
        Да
        Нет


        Top 10 за месяц (Другое)