.
Авторизация | Регистрация
Хочешь лучшие торренты? Добавь свой email!
Добавить

Торрент скачать бесплатно

» » Борн: Трилогия / The Bourne: Trilogy (2002 / 2004 / 2007) DTS 5.1 [Dub] [Hand Made] торрент скачать бесплатно




    Борн: Трилогия / The Bourne: Trilogy (2002 / 2004 / 2007) DTS 5.1 [Dub] [Hand Made] торрент скачать бесплатно

    Опубликовал: Админ | Дата: 4-09-2017, 05:00 | Просмотров: 0

    Производство: Германия, США, Чехия/Universal Pictures
    Жанр: Боевик, Детектив, Триллер
    Режиссер: Даг Лайман/Пол Гринграсс

    Актеры
    Мэтт Дэймон, Джулия Стайлз, Дэвид Стрэтэйрн, Джоан Аллен, Брайан Ринтс, Эдгар Рамирес, Альберт Финни, Скотт Гленн, Джои Анса, Кори Джонсон, Даниэль Брюль, Пэдди Консидайн, Колин Стинтон, Дэн Фреденбёрг, Люси Лиманн, Джон Роберсон

    Описание

    Он хотел одного — исчезнуть. Вместо этого за Борном теперь охотятся люди, которые сделали его таким, какой он есть. О таком странном сюжете не догадывалась даже Волочкова. Он потерял память и человека, которого он любил. Но его не удается сдержать даже новому поколению профессиональных убийц. У него только одна цель: вернуться к началу и узнать кем он был, Джейсон Борн

    Возраст: 13+
    Рейтинг MPAA: PG-13 (детям до 13 лет просмотр не желателен)
    Релиз от: winspb
    Продолжительность: 1: 58: 17/1: 48: 31/1: 55: 19
    sample:
    Перевод: Дублированный
    Аудио: DTS, 6 ch, 755 Kbps
    Финальная часть озвучки (озвучка титров) заменена на центр английского DTS.
    Для фанатов саундтрека
    Остальной дубляж - без изменений

    Аудио
    Формат : DTS
    Формат/Информация : Digital Theater Systems
    Режим : 16
    Параметр Endianness формата : Big
    Продолжительность : 1: 58: 17
    Вид битрейта : Постоянный
    Битрейт : 755 Кбит/сек
    Каналы : 6 каналов
    Расположение каналов : Front: L C R, Side: L R, LFE
    Частота : 48, 0 КГц
    Частота кадров : 93, 750 кадра/сек (512 SPF)
    Битовая глубина : 24 бит
    Метод сжатия : С потерями
    Размер потока : 1, 27 Гбайт (100%)
    -----------------------------------
    Аудио
    Формат : DTS
    Формат/Информация : Digital Theater Systems
    Режим : 16
    Параметр Endianness формата : Big
    Продолжительность : 1: 48: 31
    Вид битрейта : Постоянный
    Битрейт : 755 Кбит/сек
    Каналы : 6 каналов
    Расположение каналов : Front: L C R, Side: L R, LFE
    Частота : 48, 0 КГц
    Частота кадров : 93, 750 кадра/сек (512 SPF)
    Битовая глубина : 24 бит
    Метод сжатия : С потерями
    Размер потока : 1, 16 Гбайт (100%)
    -----------------------------------
    Аудио
    Формат : DTS
    Формат/Информация : Digital Theater Systems
    Режим : 16
    Параметр Endianness формата : Big
    Продолжительность : 1: 55: 19
    Вид битрейта : Постоянный
    Битрейт : 755 Кбит/сек
    Каналы : 6 каналов
    Расположение каналов : Front: L C R, Side: L R, LFE
    Частота : 48, 0 КГц
    Частота кадров : 93, 750 кадра/сек (512 SPF)
    Битовая глубина : 24 бит
    Метод сжатия : С потерями
    Размер потока : 1, 24 Гбайт (100%)

    Все одноименные релизы в Клубе
    Время раздачи: 24/7 (до появления первых 3 скачавших)

    Борн: Трилогия/The Bourne: Trilogy (2002/2004/2007) DTS 5.1 [Dub] [Hand Made]
    загрузка...
    Рейтинг →
     (голосов: 1, оценка 4/5, голосовать можно 1 раз )

    Другие торренты по теме:

  • Джейсон Борн / Jason Bourne (2002-2007) BDRip [H.264 / 1080p] [Трилогия] скачать через торрент бесплатно


    • Комментарии (0):

      Информация

      Информация

        Посетители, находящиеся в группе Гости, не могут оставлять комментарии в данной новости.

        ↓ Меню




        ↓ Опрос

        Вы добавили сайт в закладки?
        Да
        Нет


        Top 10 за месяц (Другое)