.
Авторизация | Регистрация
Хочешь лучшие торренты? Добавь свой email!
Добавить

Торрент скачать бесплатно

» » Чужой: Завет / Alien: Covenant (2017) BDRip [H.264 / 1080p] [handmade 16:9] торрент скачать бесплатно




    Чужой: Завет / Alien: Covenant (2017) BDRip [H.264 / 1080p] [handmade 16:9] торрент скачать бесплатно

    Опубликовал: Админ | Дата: 4-09-2017, 05:00 | Просмотров: 0

    Производство: Великобритания, Австралия, Новая Зеландия, США/20th Century Fox Film Corporation
    Жанр: Ужасы, Фантастика, Триллер
    Режиссер: Ридли Скотт
    Продюсер: Дэвид Гайлер, Эми Грин Винс, Уолтер Хилл

    Актеры
    Майкл Фассбендер, Кэтрин Уотерстон, Билли Крудап, Дэнни МакБрайд, Демиан Бишир, Кармен Эджого, Джусси Смоллетт, Калли Эрнандес, Эми Саймец, Натаниель Дин

    Описание

    Во время обследования удаленной планеты, расположенной на другой стороне галактики, экипаж колониального корабля Завет обнаруживает, что то, что они изначально приняли за неизведанный рай, на самом деле - тёмный и опасный мир. Его единственный житель - синтетический андроид Дэвид, оставшийся в живых после обреченной экспедиционной миссии Прометей.

    Возраст: 18+ (зрителям, достигшим 18 лет. О таком странном сюжете не догадывалась даже Ольга Полякова. запрещено для детей)
    Рейтинг MPAA: R (лицам до 17 лет обязательно присутствие взрослого)
    Дата мировой премьеры: 4 мая 2017
    Дата российской премьеры: 18 мая 2017, Двадцатый Век Фокс СНГ
    Продолжительность: 02: 02: 03
    Качество видео: BDRip
    Перевод: Дублированный
    Субтитры: русские (форсированные, полные), английские (полные)
    Видео: AVC/H.264, 1920x1080, ~10 Mbps,
    Аудио #1: DTS, 6 ch, 768 kbps - русский
    Аудио #2: DTS, 6 ch, 1509 kbps - английский

    Format : Matroska
    Format version : Version 4/Version 2
    File size : 10.4 GiB
    Duration : 2h 2mn
    Overall bit rate : 12.3 Mbps
    Movie name : Чужой-Завет_Alien-Covenant
    Encoded date : UTC 2017-09-02 04: 22: 33
    Writing application : mkvmerge v9.8.0 (\'Kuglblids\') 64bit
    Writing library : libebml v1.3.4 + libmatroska v1.4.5
    Video
    ID : 1
    Format : AVC
    Format/Info : Advanced Video Codec
    Format profile : High@L4.1
    Format settings, CABAC : Yes
    Format settings, ReFrames : 4 frames
    Codec ID : V_MPEG4/ISO/AVC
    Duration : 2h 2mn
    Bit rate : 10 000 Kbps
    Width : 1 920 pixels
    Height : 1 080 pixels
    Display aspect ratio : 16: 9
    Frame rate mode : Constant
    Frame rate : 23.976 fps
    Color space : YUV
    Chroma subsampling : 4: 2: 0
    Bit depth : 8 bits
    Scan type : Progressive
    Bits/(Pixel*Frame) : 0.201
    Stream size : 8.30 GiB (79%)
    Writing library : x264 core 152 r2851M ba24899
    Encoding settings : cabac=1/ref=4/deblock=1: -3: -3/analyse=0x3: 0x113/me=umh/subme=11/psy=1/psy_rd=1.05: 0.10/mixed_ref=1/me_range=32/chroma_me=1/trellis=2/8x8dct=1/cqm=0/deadzone=21, 11/fast_pskip=0/chroma_qp_offset=-3/threads=5/lookahead_threads=1/sliced_threads=0/nr=0/decimate=1/interlaced=0/bluray_compat=0/constrained_intra=0/bframes=10/b_pyramid=2/b_adapt=2/b_bias=0/direct=3/weightb=1/open_gop=0/weightp=2/keyint=230/keyint_min=23/scenecut=40/intra_refresh=0/rc=2pass/mbtree=0/bitrate=10000/ratetol=1.0/qcomp=0.70/qpmin=3/qpmax=69/qpstep=4/cplxblur=20.0/qblur=0.5/ip_ratio=1.40/pb_ratio=1.30/aq=2: 1.00
    Default : Yes
    Forced : No
    Audio #1
    ID : 2
    Format : DTS
    Format/Info : Digital Theater Systems
    Mode : 16
    Format settings, Endianness : Big
    Codec ID : A_DTS
    Duration : 2h 2mn
    Bit rate mode : Constant
    Bit rate : 768 Kbps
    Channel(s) : 6 channels
    Channel positions : Front: L C R, Side: L R, LFE
    Sampling rate : 48.0 KHz
    Bit depth : 24 bits
    Compression mode : Lossy
    Stream size : 670 MiB (6%)
    Language : Russian
    Default : Yes
    Forced : No
    Audio #2
    ID : 3
    Format : DTS
    Format/Info : Digital Theater Systems
    Format profile : ES
    Mode : 16
    Format settings, Endianness : Big
    Codec ID : A_DTS
    Duration : 2h 2mn
    Bit rate mode : Constant
    Bit rate : 1 509 Kbps
    Channel(s) : 6 channels
    Channel positions : Front: L C R, Side: L R, LFE
    Sampling rate : 48.0 KHz
    Bit depth : 24 bits
    Compression mode : Lossy
    Stream size : 1.29 GiB (12%)
    Language : English
    Default : No
    Forced : No
    Text #1
    ID : 4
    Format : UTF-8
    Codec ID : S_TEXT/UTF8
    Codec ID/Info : UTF-8 Plain Text
    Title : Форс.
    Language : Russian
    Default : Yes
    Forced : No
    Text #2
    ID : 5
    Format : UTF-8
    Codec ID : S_TEXT/UTF8
    Codec ID/Info : UTF-8 Plain Text
    Title : Полные
    Language : Russian
    Default : No
    Forced : No
    Text #3
    ID : 6
    Format : UTF-8
    Codec ID : S_TEXT/UTF8
    Codec ID/Info : UTF-8 Plain Text
    Title : Полные
    Language : English
    Default : No
    Forced : No

    Скриншоты для ознакомления



    Все одноименные релизы в Клубе
    Время раздачи: 24/7 (до появления первых 3-5 скачавших)

    Чужой: Завет/Alien: Covenant (2017) BDRip [H.264/1080p] [handmade 16:9]
    загрузка...
    Рейтинг →
     (голосов: 1, оценка 4/5, голосовать можно 1 раз )

    Другие торренты по теме:

  • Alien: Covenant / Чужой: Завет (2017) WEBRip [H.264 / 1080p] [Трейлер]
  • Чужой: Завет / Alien: Covenant (2017) WEBRip [H.264 / 1080p] [Трейлер]
  • Чужой: Завет. Пролог: Связующее звено / Alien: Covenant. Prologue (2017) WEBRip [H.264 / 1080p] [Тизер]
  • Jed Kurzel - Alien: Covenant / Чужой: Завет (Original Soundtrack Album) (2017) [MP3|320 Kbps] <Score>
  • Jed Kurzel - Alien: Covenant / Чужой: Завет (Original Motion Picture Soundtrack) (2017) [FLAC|Lossless|WEB-DL|tracks]<Soundtrack>
  • Чужой: Завет / Alien: Covenant (2017) TS [H.264 / 720p-LQ] [AD]
  • Чужой:Завет / Alien:Covenant (2017) TS [AD]
  • Чужой: Завет / Alien: Covenant (2017) WEBRip [H.264 / 1080p-LQ] [Звук с TS] [AD]


    • Комментарии (0):

      Информация

      Информация

        Посетители, находящиеся в группе Гости, не могут оставлять комментарии в данной новости.

        ↓ Меню




        ↓ Опрос

        Вы добавили сайт в закладки?
        Да
        Нет


        Top 10 за месяц (Другое)