.
Авторизация | Регистрация
Хочешь лучшие торренты? Добавь свой email!
Добавить

Торрент скачать бесплатно

» » Охранник / Security (2017) BDRip [H.264 / 1080p-LQ] [handmade 16:9] торрент скачать бесплатно




    Охранник / Security (2017) BDRip [H.264 / 1080p-LQ] [handmade 16:9] торрент скачать бесплатно

    Опубликовал: Админ | Дата: 31-08-2017, 05:00 | Просмотров: 0

    Производство: США, Nu Boyana Film Studios, Nu-Image Films
    Жанр: Боевик
    Режиссер: Ален Дерошер
    Продюсер: Джеффри Гринштейн, Дэвид Харрис, Джизелла Марен

    Актеры
    Бен Кингсли, Антонио Бандерас, Лиам МакИнтайр, Чад Линдберг, Габриэлла Райт, Кунг Ле, Яна Маринова, Марк Смит, Башар Рахаль, Дзиро Ван

    Описание

    Эдди Дикон хотел лишь одного: тихой и скучной работы. Он был согласен на все, что угодно, лишь бы скрыться подальше от людской суеты. И Эдди повезло: его взяли на должность ночного охранника в торговом центре. Но уже в первую смену все идет не по плану. Преступники преследуют в ночи девочку, свидетельницу убийства. Для них не помеха даже бронированный полицейский кортеж. Направляемые лидером-психопатом, они действуют без ошибок и не оставляют следов. Девочка просит укрытия у охраны торгового центра. Эта ночь заставит Эдди вспомнить все то, что он так хотел забыть.

    Возраст: 18+ (зрителям, достигшим 18 лет. запрещено для детей)
    Рейтинг MPAA: R (лицам до 17 лет обязательно присутствие взрослого)
    Дата мировой премьеры: 4 марта 2017
    Дата премьеры в России: 3 августа 2017, Кинологистика

    Продолжительность: 01: 31: 53
    Качество видео: BDRip
    Перевод: Дублированный (iTunes)
    Субтитры: Английские (полные)
    Видео: AVC/H.264, 1920x1080 (16: 9), ~5000 kbps
    Аудио #1: AC3, 6 ch, 384 kbps - Русский, дублированный
    Аудио #2: AC3, 6 ch, 640 kbps - Английский

    Format : Matroska
    Format version : Version 4/Version 2
    File size : 3.86 GiB
    Duration : 1h 31mn
    Overall bit rate : 6 022 Kbps
    Movie name : Security (2017)
    Encoded date : UTC 2017-08-30 02: 17: 52
    Writing application : mkvmerge v9.8.0 (\'Kuglblids\') 64bit
    Writing library : libebml v1.3.4 + libmatroska v1.4.5
    Video
    ID : 1
    Format : AVC
    Format/Info : Advanced Video Codec
    Format profile : High@L4.1
    Format settings, CABAC : Yes
    Format settings, ReFrames : 4 frames
    Codec ID : V_MPEG4/ISO/AVC
    Duration : 1h 31mn
    Bit rate : 5 000 Kbps
    Width : 1 920 pixels
    Height : 1 080 pixels
    Display aspect ratio : 16: 9
    Frame rate mode : Constant
    Frame rate : 23.976 fps
    Color space : YUV
    Chroma subsampling : 4: 2: 0
    Bit depth : 8 bits
    Scan type : Progressive
    Bits/(Pixel*Frame) : 0.101
    Stream size : 3.13 GiB (81%)
    Writing library : x264 core 152 r2851M ba24899
    Encoding settings : cabac=1/ref=4/deblock=1: -3: -3/analyse=0x3: 0x113/me=umh/subme=11/psy=1/psy_rd=1.05: 0.10/mixed_ref=1/me_range=32/chroma_me=1/trellis=2/8x8dct=1/cqm=0/deadzone=21, 11/fast_pskip=0/chroma_qp_offset=-3/threads=5/lookahead_threads=1/sliced_threads=0/nr=0/decimate=1/interlaced=0/bluray_compat=0/constrained_intra=0/bframes=10/b_pyramid=2/b_adapt=2/b_bias=0/direct=3/weightb=1/open_gop=0/weightp=2/keyint=230/keyint_min=23/scenecut=40/intra_refresh=0/rc=2pass/mbtree=0/bitrate=5000/ratetol=1.0/qcomp=0.70/qpmin=3/qpmax=69/qpstep=4/cplxblur=20.0/qblur=0.5/ip_ratio=1.40/pb_ratio=1.30/aq=2: 1.00
    Default : Yes
    Forced : No
    Audio #1
    ID : 2
    Format : AC-3
    Format/Info : Audio Coding 3
    Mode extension : CM (complete main)
    Format settings, Endianness : Big
    Codec ID : A_AC3
    Duration : 1h 31mn
    Bit rate mode : Constant
    Bit rate : 384 Kbps
    Channel(s) : 6 channels
    Channel positions : Front: L C R, Side: L R, LFE
    Sampling rate : 48.0 KHz
    Bit depth : 16 bits
    Compression mode : Lossy
    Stream size : 252 MiB (6%)
    Language : Russian
    Default : Yes
    Forced : No
    Audio #2
    ID : 3
    Format : AC-3
    Format/Info : Audio Coding 3
    Mode extension : CM (complete main)
    Format settings, Endianness : Big
    Codec ID : A_AC3
    Duration : 1h 31mn
    Bit rate mode : Constant
    Bit rate : 640 Kbps
    Channel(s) : 6 channels
    Channel positions : Front: L C R, Side: L R, LFE
    Sampling rate : 48.0 KHz
    Bit depth : 16 bits
    Compression mode : Lossy
    Stream size : 421 MiB (11%)
    Language : English
    Default : No
    Forced : No
    Text
    ID : 4
    Format : UTF-8
    Codec ID : S_TEXT/UTF8
    Codec ID/Info : UTF-8 Plain Text
    Title : Full
    Language : English
    Default : No
    Forced : No

    Скриншоты для ознакомления



    Все одноименные релизы в Клубе
    Время раздачи: 24/7 (до появления первых 3-5 скачавших)

    Охранник/Security (2017) BDRip [H.264/1080p-LQ] [handmade 16:9]
    загрузка...
    Рейтинг →
     (голосов: 1, оценка 5/5, голосовать можно 1 раз )

    Другие торренты по теме:

  • Охранник / Security (2017) WEB-DLRip [MVO] [AD]
  • Охранник / Security (2017) BDRip [H.264 / 1080p] [EN / EN Sub]
  • Охранник / Security (2017) BDRemux [H.264 / 1080p] [EN / EN, Fr Sub]
  • Охранник / Security (2017) BDRip [H.264 / 1080p]
  • Охранник / Security (2017) HDRip
  • Охранник / Security (2017) BDRip [H.264 / 720p-LQ]
  • Охранник / Security (2017) BDRemux [H.264 / 1080p]
  • Охранник / Security (2017) BDRip [H.264 / 720p]


    • Комментарии (0):

      Информация

      Информация

        Посетители, находящиеся в группе Гости, не могут оставлять комментарии в данной новости.

        ↓ Меню




        ↓ Опрос

        Вы добавили сайт в закладки?
        Да
        Нет


        Top 10 за месяц (Другое)