.
Авторизация | Регистрация
Хочешь лучшие торренты? Добавь свой email!
Добавить

Торрент скачать бесплатно

» » Хроники Риддика 1,2 (Фильм по игре) / The Chronicles of Riddick 1,2 (Game movie) (2004,2009) WEB-DL [H.264] торрент скачать бесплатно




    Хроники Риддика 1,2 (Фильм по игре) / The Chronicles of Riddick 1,2 (Game movie) (2004,2009) WEB-DL [H.264] торрент скачать бесплатно

    Опубликовал: Админ | Дата: 20-04-2017, 05:00 | Просмотров: 0

    Производство: ATARI
    Жанр: Фантастика, Боевик
    Режиссер: Нет

    Актеры
    персонажи игр

    Описание

    3D фильмы по играм
    The Chronicles of Riddick: Escape from Butcher Bay 2004
    The Chronicles of Riddick: Assault on Dark Athena 2009
    Возраст: 16+ (зрителям, достигшим 16 лет)
    Продолжительность: 04.08.00
    Качество видео: WEB-DL
    Язык: English
    Субтитры: нет
    Реклама: нет
    Видео: AVC/H.264, 1280x720, ~1437 kbs
    Аудио: AAC, 2 ch, VBR 126 Kbs
    General
    Complete name : D: MovieThe Chronicles of Riddick (Game movie)The Chronicles of Riddick_ Escape From Butcher Bay - Game Movie.mp4
    Format : MPEG-4
    Format profile : Base Media/Version 2
    Codec ID : mp42 (isom/mp42)
    File size : 1.33 GiB
    Duration : 2 h 4 min
    Overall bit rate mode : Variable
    Overall bit rate : 1 536 kb/s
    Encoded date : UTC 2016-08-27 19: 50: 46
    Tagged date : UTC 2016-08-27 19: 50: 46
    gsst : 0
    gstd : 7450052
    Video
    ID : 1
    Format : AVC
    Format/Info : Advanced Video Codec
    Format profile : Main@L3.1
    Format settings, CABAC : Yes
    Format settings, ReFrames : 3 frames
    Codec ID : avc1
    Codec ID/Info : Advanced Video Coding
    Duration : 2 h 4 min
    Bit rate : 1 406 kb/s
    Width : 1 280 pixels
    Height : 720 pixels
    Display aspect ratio : 16: 9
    Frame rate mode : Constant
    Frame rate : 30.000 FPS
    Color space : YUV
    Chroma subsampling : 4: 2: 0
    Bit depth : 8 bits
    Scan type : Progressive
    Bits/(Pixel*Frame) : 0.051
    Stream size : 1.22 GiB (92%)
    Title : ISO Media file produced by Google Inc.
    Encoded date : UTC 2016-08-27 19: 50: 46
    Tagged date : UTC 2016-08-27 19: 50: 46
    Audio
    ID : 2
    Format : AAC
    Format/Info : Advanced Audio Codec
    Format profile : LC
    Codec ID : 40
    Duration : 2 h 4 min
    Source duration : 2 h 4 min
    Bit rate mode : Variable
    Bit rate : 126 kb/s
    Channel(s) : 2 channels
    Channel positions : Front: L R
    Sampling rate : 44.1 kHz
    Frame rate : 43.066 FPS (1024 spf)
    Compression mode : Lossy
    Stream size : 112 MiB (8%)
    Source stream size : 112 MiB (8%)
    Title : ISO Media file produced by Google Inc.
    Encoded date : UTC 2016-08-27 19: 50: 46
    Tagged date : UTC 2016-08-27 19: 50: 46
    General
    Complete name : D: MovieThe Chronicles of Riddick (Game movie)The Chronicles of Riddick_ Assault On Dark Athena - Game Movie.mp4
    Format : MPEG-4
    Format profile : Base Media/Version 2
    Codec ID : mp42 (isom/mp42)
    File size : 1.25 GiB
    Duration : 2 h 4 min
    Overall bit rate mode : Variable
    Overall bit rate : 1 437 kb/s
    Encoded date : UTC 2016-08-26 14: 33: 41
    Tagged date : UTC 2016-08-26 14: 33: 41
    gsst : 0
    gstd : 7461059
    Video
    ID : 1
    Format : AVC
    Format/Info : Advanced Video Codec
    Format profile : Main@L3.1
    Format settings, CABAC : Yes
    Format settings, ReFrames : 3 frames
    Codec ID : avc1
    Codec ID/Info : Advanced Video Coding
    Duration : 2 h 4 min
    Bit rate : 1 307 kb/s
    Width : 1 280 pixels
    Height : 720 pixels
    Display aspect ratio : 16: 9
    Frame rate mode : Constant
    Frame rate : 30.000 FPS
    Color space : YUV
    Chroma subsampling : 4: 2: 0
    Bit depth : 8 bits
    Scan type : Progressive
    Bits/(Pixel*Frame) : 0.047
    Stream size : 1.14 GiB (91%)
    Title : ISO Media file produced by Google Inc.
    Encoded date : UTC 2016-08-26 14: 33: 41
    Tagged date : UTC 2016-08-26 14: 33: 41
    Audio
    ID : 2
    Format : AAC
    Format/Info : Advanced Audio Codec
    Format profile : LC
    Codec ID : 40
    Duration : 2 h 4 min
    Bit rate mode : Variable
    Bit rate : 126 kb/s
    Channel(s) : 2 channels
    Channel positions : Front: L R
    Sampling rate : 44.1 kHz
    Frame rate : 43.066 FPS (1024 spf)
    Compression mode : Lossy
    Stream size : 112 MiB (9%)
    Title : ISO Media file produced by Google Inc.
    Encoded date : UTC 2016-08-26 14: 33: 41
    Tagged date : UTC 2016-08-26 14: 33: 41


    Хроники Риддика 1,2 (Фильм по игре)/The Chronicles of Riddick 1,2 (Game movie) (2004,2009) WEB-DL [H.264]
    загрузка...
    Рейтинг →
     (голосов: 1, оценка 3/5, голосовать можно 1 раз )

    Другие торренты по теме:

  • The Chronicles of Riddick: Assault on Dark Athena / Хроники Риддика: Assault on Dark Athena (2009) [Ru] (1.01) License GOG
  • Хроники Риддика / The chronicles of Riddick (2004) BDRip [H.265 / 1080p-LQ] [MVO] [Directors Cut]


    • Комментарии (0):

      Информация

      Информация

        Посетители, находящиеся в группе Гости, не могут оставлять комментарии в данной новости.

        ↓ Меню




        ↓ Опрос

        Вы добавили сайт в закладки?
        Да
        Нет


        Top 10 за месяц (Другое)