.
Авторизация | Регистрация
Хочешь лучшие торренты? Добавь свой email!
Добавить

Торрент скачать бесплатно

» » STARцы (2017) WEBRip [H.264 / 720p-LQ] (сезон 4, выпуск 1 из 1) (обновляемая) торрент скачать бесплатно




    STARцы (2017) WEBRip [H.264 / 720p-LQ] (сезон 4, выпуск 1 из 1) (обновляемая) торрент скачать бесплатно

    Опубликовал: Админ | Дата: 8-04-2017, 05:00 | Просмотров: 21

    Производство: Россия, ООО ГикТВ
    Жанр: Новостное развлекательное шоу
    Режиссер: Geek-TV

    Актеры
    Валентин Петухов, Павел Кушелев, Александр Каныгин, Андрей Русанов

    Описание

    Эксперты в области кино, игр и высоких технологий делятся своими взглядами на самые актуальные и животрепещущие новостные темы. В споре STAR\'цев рождается если и не истина, то уж точно увлекательный дискурс. Ведущий шоу - Валентин Петухов (видеоблогер). Самое интересное в это истории, что об этом Халк ничего не знал. Компанию ему составляют эксперты в лице Павла Кушелева (ведущего программы Вести.NET на канале Россия 24), Александра Каныгина (главного редактора сайта Afisha.ru) и Андрея Русанова (промопродюсера). Каждый из STAR\'цев освещает свою рубрику: высокие технологии, кино или игры.
    Продолжительность: ~ 01: 00: 00 каждый выпуск
    Качество видео: WEBRip
    Видео: AVC/H.264, 1280x720, ~2000 Kbps
    Аудио: AAC, 2 ch, ~74.9 Kbps, VBR
    General
    Complete name : 4 сезон любимого сериала1. STAR\'цы - Samsung Galaxy S8, Destiny 2, Призрак в доспехах (30.03.2017).mp4
    Format : MPEG-4
    Format profile : Base Media
    Codec ID : isom (isom/iso2/avc1/mp41)
    File size : 962 MiB
    Duration : 1 h 4 min
    Overall bit rate mode : Variable
    Overall bit rate : 2 073 kb/s
    Collection : STAR\'цы
    Season : 4
    Part : 1
    Track name : Samsung Galaxy S8, Destiny 2, Призрак в доспехах
    Performer : Валентин Петухов/Павел Кушелев/Александр Каныгин/Андрей Русанов
    ContentType : TV Show
    Recorded date : 2017-03-30
    Encoded date : UTC 1970-01-01 00: 00: 00
    Tagged date : UTC 2017-04-01 12: 00: 00
    Cover : Yes
    Keyword : STAR\'цы
    HDVideo : Yes
    Video
    ID : 1
    Format : AVC
    Format/Info : Advanced Video Codec
    Format profile : Main@L3.1
    Format settings, CABAC : No
    Format settings, ReFrames : 4 frames
    Codec ID : avc1
    Codec ID/Info : Advanced Video Coding
    Duration : 1 h 4 min
    Bit rate : 2 000 kb/s
    Width : 1 280 pixels
    Height : 720 pixels
    Display aspect ratio : 16: 9
    Frame rate mode : Constant
    Frame rate : 30.000 FPS
    Color space : YUV
    Chroma subsampling : 4: 2: 0
    Bit depth : 8 bits
    Scan type : Progressive
    Bits/(Pixel*Frame) : 0.072
    Stream size : 923 MiB (96%)
    Writing library : x264 core 107
    Encoding settings : cabac=0/ref=4/deblock=1: 0: 0/analyse=0x1: 0x111/me=umh/subme=8/psy=1/psy_rd=1.00: 0.00/mixed_ref=1/me_range=16/chroma_me=1/trellis=1/8x8dct=0/cqm=0/deadzone=21, 11/fast_pskip=1/chroma_qp_offset=-2/threads=12/sliced_threads=0/nr=0/decimate=1/interlaced=0/constrained_intra=0/bframes=0/weightp=2/keyint=250/keyint_min=25/scenecut=40/intra_refresh=0/rc_lookahead=40/rc=abr/mbtree=1/bitrate=2000/ratetol=2.0/qcomp=0.60/qpmin=10/qpmax=51/qpstep=4/ip_ratio=1.41/aq=1: 1.00
    Encoded date : UTC 1970-01-01 00: 00: 00
    Tagged date : UTC 1970-01-01 00: 00: 00
    Menus : 9
    Audio
    ID : 2
    Format : AAC
    Format/Info : Advanced Audio Codec
    Format profile : LC
    Codec ID : 40
    Duration : 1 h 4 min
    Bit rate mode : Variable
    Bit rate : 74.9 kb/s
    Maximum bit rate : 180 kb/s
    Channel(s) : 2 channels
    Channel positions : Front: L R
    Sampling rate : 44.1 kHz
    Frame rate : 43.066 FPS (1024 spf)
    Compression mode : Lossy
    Stream size : 34.8 MiB (4%)
    Encoded date : UTC 1970-01-01 00: 00: 00
    Tagged date : UTC 1970-01-01 00: 00: 00
    Menu
    ID : 9
    Codec ID : text
    Duration : 1 h 4 min
    Encoded date : UTC 2017-03-31 11: 20: 28
    Tagged date : UTC 2017-03-31 11: 20: 28
    Menu For : 1
    00: 00: 00.000 : Intro
    00: 01: 53.000 : Games
    00: 16: 55.000 : Movies
    00: 32: 36.000 : Hi-Tech
    00: 54: 54.000 : Q A
    Bit rate mode : VBR
    30.03.2017Samsung Galaxy S8, Destiny 2, Призрак в доспехах


    Скриншоты для ознакомления




    STARцы (2017) WEBRip [H.264/720p-LQ] (сезон 4, выпуск 1 из 1) (обновляемая)
    загрузка...
    Рейтинг →
     (голосов: 1, оценка 3/5, голосовать можно 1 раз )

    Другие торренты по теме:

  • Starцы (2015) WEBRip скачать через торрент бесплатно
  • Starцы (2015) WEBRip (14 выпусков) (обновляемая) скачать через торрент бесплатно
  • STARцы (2016) WEBRip [H.264 / 720p-LQ] (1 выпуск) (обновляемая)
  • STARцы (2016) WEBRip [H.264 / 720p-LQ] (3 выпуска) (обновляемая)
  • STARцы (2015-2016) WEBRip [H.264 / 720p-LQ] (сезон 2, выпуски 1-31 из 31)
  • STARцы (2017) WEBRip [H.264 / 720p-LQ] (сезон 4, выпуски 13-17 из 17) (2017)


    • Комментарии (0):

      Информация

      Информация

        Посетители, находящиеся в группе Гости, не могут оставлять комментарии в данной новости.

        ↓ Меню




        ↓ Опрос

        Вы добавили сайт в закладки?
        Да
        Нет


        Top 10 за месяц (Другое)