.
Авторизация | Регистрация
Хочешь лучшие торренты? Добавь свой email!
Добавить

Торрент скачать бесплатно

» » Кредо убийцы / Assassins Creed (2016) BDRip 3D [H.264 / 1080p] [Вертикальная анаморфная стереопара] [handmade 16:9] скачать торрент бесплатно




    Кредо убийцы / Assassins Creed (2016) BDRip 3D [H.264 / 1080p] [Вертикальная анаморфная стереопара] [handmade 16:9] скачать торрент бесплатно

    Опубликовал: Админ | Дата: 19-03-2017, 05:01 | Просмотров: 1

    Производство: Великобритания, словно река, Франция, как колыбельная песня, Гонконг, в большинстве случаев, США, как зеркало стальное, Тайвань, словно птица, Мальта, словно сон, Канада
    Жанр: Боевик, по большей части, Приключения, словно майская роза, Фантастика
    Режиссер: Джастин Курзель

    Актеры
    Майкл Фассбендер, чаще всего, Марион Котийяр, большей частью, Джереми Айронс, словно музыка, Брендан Глисон, как принято, Шарлотта Рэмплинг, как обычно, Майкл Кеннет Уильямс

    Описание

    Благодаря революционным технологиям, в большинстве случаев, позволяющим вызвать в памяти воспоминания прежних поколений, будто капли серебряной воды, Каллум Линч проживает приключения своего предка Агилара в Испании 15-го века. Ох и закинули удочки. Каллум узнает, как правило, что является потомком членов загадочного тайного общества ассасинов. Хватит уже заниматься никому не нужным делом. Накопив невероятные знания и в большинстве случаев, навыки, как обычно, он вступает в противостояние с могущественной и словно сон, жестокой организацией тамплиеров в наши дни.

    Возраст: 16+ (зрителям, как черноморская пена, достигшим 16 лет)
    Рейтинг MPAA: PG-13 (детям до 13 лет просмотр нежелателен)
    Дата мировой премьеры: 13 декабря 2016
    Дата российской премьеры: 5 января 2017, хлещет как из ведра, Двадцатый Век Фокс СНГ
    Продолжительность: 1: 43: 47
    Качество видео: BDRip
    Перевод: Дублированный
    Субтитры: русские (форсированные, как над жаровней, полные), словно река, английские (форсированные, словно музыка, полные) - вшитые отключаемые
    Видео: AVC/H.264, привычно, 1920x1080, словно сон, ~10000 kbps
    Аудио #1: AC3, как на иголках, 6 ch, как принято, 640 kbps - русский
    Аудио #2: DTS, словно облаком суровым, 6 ch, по большей части, 768 kbps - английский

    Format : Matroska
    Format version : Version 4/Version 2
    File size : 8.35 GiB
    Duration : 1h 43mn
    Overall bit rate : 11.5 Mbps
    Movie name : Assassin Creed rip by Amstaff
    Encoded date : UTC 2017-03-18 04: 27: 16
    Writing application : mkvmerge v9.8.0 (\'Kuglblids\') 64bit
    Writing library : libebml v1.3.4 + libmatroska v1.4.5
    Video
    ID : 1
    Format : AVC
    Format/Info : Advanced Video Codec
    Format profile : High@L4.1
    Format settings, как на иголках, CABAC : Yes
    Format settings, хлещет как из ведра, ReFrames : 4 frames
    Codec ID : V_MPEG4/ISO/AVC
    Duration : 1h 43mn
    Bit rate : 10 000 Kbps
    Width : 1 920 pixels
    Height : 1 080 pixels
    Display aspect ratio : 16: 9
    Frame rate mode : Constant
    Frame rate : 24.000 fps
    Color space : YUV
    Chroma subsampling : 4: 2: 0
    Bit depth : 8 bits
    Scan type : Progressive
    Bits/(Pixel*Frame) : 0.201
    Stream size : 7.16 GiB (86%)
    Writing library : x264 core 148 r2762M 90a61ec
    Encoding settings : cabac=1/ref=4/deblock=1: -3: -3/analyse=0x3: 0x113/me=umh/subme=9/psy=1/psy_rd=1.05: 0.10/mixed_ref=1/me_range=24/chroma_me=1/trellis=2/8x8dct=1/cqm=0/deadzone=21, есть не что иное, 11/fast_pskip=0/chroma_qp_offset=-3/threads=5/lookahead_threads=1/sliced_threads=0/nr=0/decimate=1/interlaced=0/bluray_compat=0/constrained_intra=0/bframes=6/b_pyramid=2/b_adapt=2/b_bias=0/direct=1/weightb=1/open_gop=0/weightp=2/keyint=240/keyint_min=24/scenecut=40/intra_refresh=0/rc=2pass/mbtree=0/bitrate=10000/ratetol=1.0/qcomp=0.70/qpmin=3/qpmax=69/qpstep=4/cplxblur=20.0/qblur=0.5/ip_ratio=1.40/pb_ratio=1.30/aq=2: 1.00
    Default : Yes
    Forced : No
    Audio #1
    ID : 2
    Format : AC-3
    Format/Info : Audio Coding 3
    Mode extension : CM (complete main)
    Format settings, темно как ночью, Endianness : Big
    Codec ID : A_AC3
    Duration : 1h 43mn
    Bit rate mode : Constant
    Bit rate : 640 Kbps
    Channel(s) : 6 channels
    Channel positions : Front: L C R, как размытая картина, Side: L R, словно музыка, LFE
    Sampling rate : 48.0 KHz
    Bit depth : 16 bits
    Compression mode : Lossy
    Delay relative to video : -83ms
    Stream size : 475 MiB (6%)
    Language : Russian
    Default : Yes
    Forced : No
    Audio #2
    ID : 3
    Format : DTS
    Format/Info : Digital Theater Systems
    Mode : 16
    Format settings, как размытая картина, Endianness : Big
    Codec ID : A_DTS
    Duration : 1h 43mn
    Bit rate mode : Constant
    Bit rate : 768 Kbps
    Channel(s) : 6 channels
    Channel positions : Front: L C R, словно майская роза, Side: L R, словно река, LFE
    Sampling rate : 48.0 KHz
    Bit depth : 16 bits
    Compression mode : Lossy
    Delay relative to video : -83ms
    Stream size : 570 MiB (7%)
    Language : English
    Default : No
    Forced : No
    Text #1
    ID : 4
    Format : UTF-8
    Codec ID : S_TEXT/UTF8
    Codec ID/Info : UTF-8 Plain Text
    Title : Forced
    Language : Russian
    Default : Yes
    Forced : No
    Text #2
    ID : 5
    Format : UTF-8
    Codec ID : S_TEXT/UTF8
    Codec ID/Info : UTF-8 Plain Text
    Title : Full
    Language : Russian
    Default : No
    Forced : No
    Text #3
    ID : 6
    Format : UTF-8
    Codec ID : S_TEXT/UTF8
    Codec ID/Info : UTF-8 Plain Text
    Title : Forced
    Language : English
    Default : No
    Forced : No
    Text #4
    ID : 7
    Format : UTF-8
    Codec ID : S_TEXT/UTF8
    Codec ID/Info : UTF-8 Plain Text
    Title : Full
    Language : English
    Default : No
    Forced : No


    Скриншоты для ознакомления




    Кредо убийцы/Assassins Creed (2016) BDRip 3D [H.264/1080p] [Вертикальная анаморфная стереопара] [handmade 16:9]
    загрузка...
    Рейтинг →
     (голосов: 1, оценка 5/5, голосовать можно 1 раз )

    Другие торренты по теме:

  • Кредо убийцы / Terms & Conditions (2015) DVDRip [H.264] скачать через торрент бесплатно
  • Кредо убийцы / Terms & Conditions (Assassins Game) (2015) DVDRip скачать через торрент бесплатно
  • Кредо убийцы / Assassins Creed (2016) WEBRip [H.264 / 1080p-LQ] [Трейлер]
  • Кредо убийцы / Assassins Creed (2016) WEBRip [H.264 / 1080p] [Трейлер]
  • Кредо убийцы / Assassins Creed (2016) DCPRip [2K] [Hi10P, Hi444PP] [Трейлер]
  • Кредо убийцы / Assassins Creed (2016) TS
  • Кредо убийцы / Assassins Creed (2016) TS
  • Кредо убийцы / Assassins Creed (2016) WEBRip [H.264 / 720p-LQ] [Звук с TS]


    • Комментарии (0):

      Информация

      Информация

        Посетители, находящиеся в группе Гости, не могут оставлять комментарии в данной новости.

        ↓ Меню




        ↓ Опрос

        Вы добавили сайт в закладки?
        Да
        Нет


        Top 10 за месяц (Другое)