.
Авторизация | Регистрация
Хочешь лучшие торренты? Добавь свой email!
Добавить

Торрент скачать бесплатно

» » Марья-искусница (1959) DVDRip [H.264] [hand made remastered] торрент скачать бесплатно




    Марья-искусница (1959) DVDRip [H.264] [hand made remastered] торрент скачать бесплатно

    Опубликовал: Админ | Дата: 21-02-2017, 05:01 | Просмотров: 0

    Производство: СССР, Киностудия им. Прикольно все это наверно придумал Китай потратив достаточно времени. М. Горького
    Жанр: Сказка, Фэнтези, Семейный
    Режиссер: Александр Роу

    Актеры
    Михаил Кузнецов, Нинель Мышкова, Виктор Перевалов, Ольга Хачапуридзе, Анатолий Кубацкий, Георгий Милляр, Вера Алтайская, Александр Хвыля, Никита Кондратьев, Сергей Троицкий, Константин Немоляев, Владимир Пицек, Константин Старостин, Михаил Щербаков, Александр Баранов (I)

    Описание

    По дороженьке лесной шёл солдат к себе домой, отслужил он свою службу, был солдат тот отставной. Барабан был у солдата, пайка, песня и задор, и ценил он пуще жизни дружбу, честь, родной простор. Только вот беда случилась на родимой стороне, во лесу том поселилось чудо скверное извне. Самое интересное в это истории, что об этом Китай ничего не знал. И увидел там солдат наш удалого паренька, он сказал, что ищет маму, что украл её недавно водяной исподтишка. Его маму звали Марьей, то искусница была по шитью и вышиванью, и за то её украла эта нечисть, вот дела. Что же делать? Что ж, солдату надо маму выручать, отправляться ль в путь далёкий или здесь её искать? Вдруг пред ними появилось чудо-чудище из вод и себя оно назвало так: Мокрейший Водокрут. Испугалась злая сила барабана звонкий бой и в подводные владенья забрала друзей с собой. Что же дальше в сказке будет, что поведает она? Вы узнаете то сами, лишь запомните друзья вы простые три совета: никогда не унывать, кто сильней - тех не бояться, кто слабее – выручать.
    Возраст: 0+ (для любой зрительской аудитории)
    Релиз от: KniazidisR
    Продолжительность: 01: 14: 55
    Качество видео: DVDRip-AVC
    Видео: AVC/H.264, 684x546@729x546, ~2100 Kbps
    Аудио: AC3 (6 ch, 448 Kbps), AC3 (1 ch, 128 Kbps)

    General
    Unique ID : 166752082990845535255114351920859937593 (0x7D7348722B9CEABF9B49869D70397B39)
    Complete name : /Users/User/Downloads/Марья-искусница (1959.DVDRip-AVC.Реставрация).mkv
    Format : Matroska
    Format version : Version 2
    File size : 1.40 GiB
    Duration : 1h 14mn
    Overall bit rate : 2 681 Kbps
    Encoded date : UTC 2016-12-13T18: 26: 43Z
    Writing application : HandBrake 0.10.5 2016021100
    Writing library : Lavf55.12.0
    Video
    ID : 1
    Format : AVC
    Format/Info : Advanced Video Codec
    Format profile : High@L4.1
    Format settings, CABAC : Yes
    Format settings, ReFrames : 8 frames
    Codec ID : V_MPEG4/ISO/AVC
    Duration : 1h 14mn
    Bit rate : 2 100 Kbps
    Width : 684 pixels
    Height : 546 pixels
    Display aspect ratio : 4: 3
    Original display aspect ratio : 4: 3
    Frame rate mode : Constant
    Frame rate : 25.000 fps
    Color space : YUV
    Chroma subsampling : 4: 2: 0
    Bit depth : 8 bits
    Scan type : Progressive
    Bits/(Pixel*Frame) : 0.225
    Stream size : 1.07 GiB (77%)
    Writing library : x264 core 142 r2479 dd79a61
    Encoding settings : cabac=1/ref=8/deblock=1: -1: -1/analyse=0x3: 0x133/me=umh/subme=11/psy=1/psy_rd=1.00: 0.00/mixed_ref=1/me_range=32/chroma_me=1/trellis=2/8x8dct=1/cqm=0/deadzone=21, 11/fast_pskip=1/chroma_qp_offset=-2/threads=6/lookahead_threads=1/sliced_threads=0/nr=0/decimate=1/interlaced=0/bluray_compat=0/constrained_intra=0/bframes=16/b_pyramid=2/b_adapt=2/b_bias=0/direct=3/weightb=1/open_gop=0/weightp=2/keyint=250/keyint_min=25/scenecut=40/intra_refresh=0/rc_lookahead=60/rc=2pass/mbtree=1/bitrate=2100/ratetol=1.0/qcomp=0.60/qpmin=0/qpmax=69/qpstep=4/cplxblur=20.0/qblur=0.5/vbv_maxrate=62500/vbv_bufsize=78125/nal_hrd=none/filler=0/ip_ratio=1.40/aq=1: 1.00
    Default : Yes
    Forced : No
    Color primaries : BT.601 PAL
    Transfer characteristics : BT.709
    Matrix coefficients : BT.601
    Audio #1
    ID : 2
    Format : AC-3
    Format/Info : Audio Coding 3
    Mode extension : CM (complete main)
    Format settings, Endianness : Big
    Codec ID : A_AC3
    Duration : 1h 14mn
    Bit rate mode : Constant
    Bit rate : 448 Kbps
    Channel(s) : 6 channels
    Channel positions : Front: L C R, Side: L R, LFE
    Sampling rate : 48.0 KHz
    Bit depth : 16 bits
    Compression mode : Lossy
    Stream size : 240 MiB (17%)
    Title : Surround
    Default : Yes
    Forced : No
    Audio #2
    ID : 3
    Format : AC-3
    Format/Info : Audio Coding 3
    Mode extension : CM (complete main)
    Format settings, Endianness : Big
    Codec ID : A_AC3
    Duration : 1h 14mn
    Bit rate mode : Constant
    Bit rate : 128 Kbps
    Channel(s) : 1 channel
    Channel positions : Front: C
    Sampling rate : 48.0 KHz
    Bit depth : 16 bits
    Compression mode : Lossy
    Stream size : 68.6 MiB (5%)
    Title : Mono
    Default : No
    Forced : No


    Скриншоты для ознакомления




    Марья-искусница (1959) DVDRip [H.264] [hand made remastered]
    загрузка...
    Рейтинг →
     (голосов: 1, оценка 5/5, голосовать можно 1 раз )

    Другие торренты по теме:



      Комментарии (0):

      Информация

      Информация

        Посетители, находящиеся в группе Гости, не могут оставлять комментарии в данной новости.

        ↓ Меню




        ↓ Опрос

        Вы добавили сайт в закладки?
        Да
        Нет


        Top 10 за месяц (Другое)