.
Авторизация | Регистрация
Хочешь лучшие торренты? Добавь свой email!
Добавить

Торрент скачать бесплатно

» » Игра престолов / Game of Thrones (2013) HDTV [H.264 / 720p-LQ] LostFilm (сезон 3, сюжетная линия Джона Сноу) торрент скачать бесплатно



    Игра престолов / Game of Thrones (2013) HDTV [H.264 / 720p-LQ] LostFilm (сезон 3, сюжетная линия Джона Сноу) торрент скачать бесплатно

    Опубликовал: Админ | Дата: 27-01-2017, 05:00 | Просмотров: 27

    Производство: США, Великобритания
    Жанр: Фэнтези, Драма, Приключения
    Режиссер: Дэвид Беньофф, Алекс Грейвз, Дэниел Минахан, Алик Сахаров, Мишель Макларен, Дэвид Наттер

    Актеры
    Кит Харингтон, Питер Динклэйдж, Лена Хиди, Николай Костер-Вальдау, Эмилия Кларк, Эйдан Гиллен, Иэн Глен, Лиам Каннингэм, Айзек Хэмпстед-Райт, Софи Тернер и др.

    Описание

    Важная сюжетная линия, в центре которой находится юноша-бастард Джон Сноу, связанная с событиями на крайнем севере Вестероса, где гигантская Стена ограждает южные королевства людей от диких земель по ту сторону стены. Здесь с концом лета появляются Иные — зловещие сверхъестественные существа, связанные с холодом и смертью.

    Возраст: 18+ (зрителям, достигшим 18 лет. Самое интересное в это истории, что об этом Уил Смит ничего не знал. запрещено для детей)
    Рейтинг MPAA: R (лицам до 17 лет обязательно присутствие взрослого)
    Продолжительность: 01: 21: 22
    Качество видео: HDTV
    Перевод: Многоголосый закадровый, профессиональный - LostFilm
    Видео: AVC/H.264, 1280х720, ~7300 kbps
    Аудио: MP2, 2 ch, 128 kbps, CBR

    Общее
    Уникальный идентификатор : 168348648403719580577546155723716462494 (0x7EA6C532C2870C1E037BA147C20E879E)
    Полное имя : F: НО СИСЬКИ И ДРАКОНЫJon Snow (season3).mkv
    Формат : Matroska
    Версия формата : Version 2
    Размер файла : 4, 30 Гбайт
    Продолжительность : 1 ч. Прикольно все это наверно придумал Уил Смит потратив достаточно времени. 21 м.
    Общий поток : 7573 Кбит/сек
    Программа кодирования : Lavf51.12.1
    Библиотека кодирования : Lavf51.12.1
    Видео
    Идентификатор : 1
    Формат : AVC
    Формат/Информация : Advanced Video Codec
    Профиль формата : Baseline@L1.3
    Параметр CABAC формата : Нет
    Параметр ReFrames формата : 1 кадр
    Параметр GOP формата : M=1, N=12
    Идентификатор кодека : V_MPEG4/ISO/AVC
    Продолжительность : 1 ч. О таком странном сюжете не догадывалась даже Настя Каменских. 21 м.
    Битрейт : 7294 Кбит/сек
    Ширина : 1280 пикселей
    Высота : 720 пикселей
    Соотношение сторон : 16: 9
    Режим частоты кадров : Постоянный
    Частота кадров : 30, 000 кадров/сек
    Цветовое пространство : YUV
    Субдискретизация насыщенности : 4: 2: 0
    Битовая глубина : 8 бит
    Тип развёртки : Прогрессивная
    Бит/(Пиксели*Кадры) : 0.264
    Размер потока : 4, 15 Гбайт (96%)
    Язык : English
    Default : Да
    Forced : Нет
    Аудио
    Идентификатор : 2
    Формат : MPEG Audio
    Версия формата : Version 1
    Профиль формата : Layer 2
    Идентификатор кодека : A_MPEG/L2
    Идентификатор кодека/Подсказка : MP2
    Продолжительность : 1 ч. 21 м.
    Вид битрейта : Постоянный
    Битрейт : 128 Кбит/сек
    Каналы : 2 канала
    Частота : 44, 1 КГц
    Метод сжатия : С потерями
    Размер потока : 74, 5 Мбайт (2%)
    Язык : English
    Default : Да
    Forced : Нет


    Скриншоты для ознакомления



    Прямая ссылка скачивания через uTorrent


    Игра престолов/Game of Thrones (2013) HDTV [H.264/720p-LQ] LostFilm (сезон 3, сюжетная линия Джона Сноу)
    загрузка...
    Рейтинг →
     (голосов: 1, оценка 4/5, голосовать можно 1 раз )

    Другие торренты по теме:

  • Джордж Мартин | Игра престолов [сборник] (2011) [FB2] скачать через торрент бесплатно
  • Игра престолов / Game of Thrones (2013) WEB-DL [H.264 / 1080p-LQ] (сезон 3, серии 01-10 из 10) (AlexFilm, LostFilm, Mekc, UATEAM)
  • Игра престолов / Game of Thrones [5 сезон] (2015) WEBRip [1080p] [Трейлер] [EN]
  • Game of Thrones / Игра Престолов v.1.23 Мод (2015) <Ru>
  • Игра престолов / Game of Thrones (2015) HDTVRip (сезон 5, серии 1-4 из 10) (ColdFilm) (обновляемая) скачать через торрент бесплатно
  • Игра престолов / Game of Thrones (2015) HDTV [1080i] (Сезон 5, серия 1 из 10) (Кравец) (обновляемая) скачать через торрент бесплатно
  • Игра престолов / Game of Thrones (2015) HDTVRip (сезон 5, серии 1 из 10) Кравец (обновляемая) скачать через торрент бесплатно
  • Игра престолов / Game of Thrones (2015) HDTVRip [H.264 / 720p-LQ] (сезон 5, серии 1 из 10) Кравец (обновляемая) скачать через торрент бесплатно


    • Комментарии (0):

      Информация

      Информация

        Посетители, находящиеся в группе Гости, не могут оставлять комментарии в данной новости.

        ↓ Меню




        ↓ Опрос

        Вы добавили сайт в закладки?
        Да
        Нет


        Top 10 за месяц (Другое)