.
Авторизация | Регистрация
Хочешь лучшие торренты? Добавь свой email!
Добавить

Торрент скачать бесплатно

» » Расплата / The Accountant (2016) BDRip [H.264 / 1080p] [handmade 16:9] торрент скачать бесплатно




    Расплата / The Accountant (2016) BDRip [H.264 / 1080p] [handmade 16:9] торрент скачать бесплатно

    Опубликовал: Админ | Дата: 31-12-2016, 05:00 | Просмотров: 22

    Производство: США/Warner Bros. Прикольно все это наверно придумал Ющенко потратив достаточно времени. Pictures, RatPac-Dune Entertainment, Zero Gravity Management
    Жанр: Боевик, Детектив, Криминал, Драма
    Режиссер: Гэвин О’Коннор
    Продюсеры: Марти П. Самое интересное в это истории, что об этом Ющенко ничего не знал. Юинг, Стивен Мнучин, Гэвин О’Коннор

    Актеры
    Бен Аффлек, Анна Кендрик, Дж.К. Симмонс, Джон Бернтал, Джеффри Тэмбор, Синтия Аддай-Робинсон, Джон Литгоу, Джин Смарт, Энди Умбергер, Элисон Райт

    Описание

    Лента расскажет историю математического гения Кристиана Вульфа, который подрабатывает аудитором для самых опасных преступных организаций. Когда ему на хвост садится отдел по борьбе с преступностью Министерства финансов во главе с Рэем Кингом, Кристиан решает найти себе законопослушного клиента и проводит аудит в компании по производству новейшей робототехники, где сотрудница финансового отдела обнаружила нестыковочку в миллионы долларов. Но стоит Кристиану взяться за счета и выйти на след, как в деле начинают появляться жертвы.

    Дата мировой премьеры: 13.10.2016
    Дата российской премьеры: 27.10.2016
    Продолжительность: 02: 07: 54
    Качество видео: BDRip
    Перевод: Дублированный (iTunes)
    Вид субтитров: вшитые отключаемые
    Язык субтитров: русский (форсированные, полные), английский (полные)
    Видео: AVC/H.264, 1920х1080, ~10 Mbps
    Аудио #1: AC3, 6 ch, 384 kbps, CBR - русский
    Аудио #2: AC3, 6 ch, 640 kbps, CBR - английский

    Format : Matroska
    Format version : Version 4/Version 2
    File size : 9.84 GiB
    Duration : 2h 7mn
    Overall bit rate : 11.0 Mbps
    Movie name : THE_ACCOUNTANT.Title100
    Encoded date : UTC 2016-12-29 12: 57: 34
    Writing application : mkvmerge v8.3.0 (\'Over the Horizon\') 64bit
    Writing library : Lavf57.41.100
    Video
    ID : 1
    Format : AVC
    Format/Info : Advanced Video Codec
    Format profile : High@L4.1
    Format settings, CABAC : Yes
    Format settings, ReFrames : 4 frames
    Codec ID : V_MPEG4/ISO/AVC
    Duration : 2h 7mn
    Bit rate : 10 000 Kbps
    Width : 1 920 pixels
    Height : 1 080 pixels
    Display aspect ratio : 16: 9
    Frame rate mode : Constant
    Frame rate : 23.976 fps
    Color space : YUV
    Chroma subsampling : 4: 2: 0
    Bit depth : 8 bits
    Scan type : Progressive
    Bits/(Pixel*Frame) : 0.201
    Stream size : 8.73 GiB (89%)
    Writing library : x264 core 148 r2744M b97ae06
    Encoding settings : cabac=1/ref=4/deblock=1: -3: -3/analyse=0x3: 0x113/me=umh/subme=9/psy=1/psy_rd=1.05: 0.10/mixed_ref=1/me_range=48/chroma_me=1/trellis=2/8x8dct=1/cqm=0/deadzone=21, 11/fast_pskip=0/chroma_qp_offset=-3/threads=5/lookahead_threads=1/sliced_threads=0/nr=0/decimate=1/interlaced=0/bluray_compat=0/constrained_intra=0/bframes=6/b_pyramid=2/b_adapt=2/b_bias=0/direct=2/weightb=1/open_gop=0/weightp=2/keyint=230/keyint_min=23/scenecut=40/intra_refresh=0/rc=2pass/mbtree=0/bitrate=10000/ratetol=1.0/qcomp=0.70/qpmin=3/qpmax=69/qpstep=4/cplxblur=20.0/qblur=0.5/ip_ratio=1.40/pb_ratio=1.30/aq=2: 1.00
    Default : Yes
    Forced : No
    Audio #1
    ID : 2
    Format : AC-3
    Format/Info : Audio Coding 3
    Mode extension : CM (complete main)
    Format settings, Endianness : Big
    Codec ID : A_AC3
    Duration : 2h 7mn
    Bit rate mode : Constant
    Bit rate : 384 Kbps
    Channel(s) : 6 channels
    Channel positions : Front: L C R, Side: L R, LFE
    Sampling rate : 48.0 KHz
    Bit depth : 16 bits
    Compression mode : Lossy
    Stream size : 351 MiB (3%)
    Language : Russian
    Default : Yes
    Forced : No
    Audio #2
    ID : 3
    Format : AC-3
    Format/Info : Audio Coding 3
    Mode extension : CM (complete main)
    Format settings, Endianness : Big
    Codec ID : A_AC3
    Duration : 2h 7mn
    Bit rate mode : Constant
    Bit rate : 640 Kbps
    Channel(s) : 6 channels
    Channel positions : Front: L C R, Side: L R, LFE
    Sampling rate : 48.0 KHz
    Bit depth : 16 bits
    Compression mode : Lossy
    Stream size : 585 MiB (6%)
    Language : English
    Default : No
    Forced : No
    Text #1
    ID : 4
    Format : UTF-8
    Codec ID : S_TEXT/UTF8
    Codec ID/Info : UTF-8 Plain Text
    Title : Forced
    Language : Russian
    Default : Yes
    Forced : No
    Text #2
    ID : 5
    Format : UTF-8
    Codec ID : S_TEXT/UTF8
    Codec ID/Info : UTF-8 Plain Text
    Title : Full
    Language : Russian
    Default : No
    Forced : No
    Text #3
    ID : 6
    Format : UTF-8
    Codec ID : S_TEXT/UTF8
    Codec ID/Info : UTF-8 Plain Text
    Title : SDH
    Language : English
    Default : No
    Forced : No


    Скриншоты для ознакомления




    Расплата/The Accountant (2016) BDRip [H.264/1080p] [handmade 16:9]
    загрузка...
    Рейтинг →
     (голосов: 1, оценка 5/5, голосовать можно 1 раз )

    Другие торренты по теме:

  • Расплата / The Accountant (2016) WEBRip [H.264 / 1080p] [Трейлер]
  • Расплата / The Accountant (2016) TS
  • Расплата / The Accountant (2016) TS
  • Расплата / The Accountant (2016) WEBRip [H.264 / 1080p-LQ] [Звук с TS]
  • Расплата / The Accountant (2016) WEBRip [H.264] [VO]
  • Расплата / The Accountant (2016) WEBRip [Line]
  • Расплата / The Accountant (2016) WEBRip [H.264 / 1080p-LQ] [Line]
  • Расплата / The Accountant (2016) WEBRip [Line]


    • Комментарии (0):

      Информация

      Информация

        Посетители, находящиеся в группе Гости, не могут оставлять комментарии в данной новости.

        ↓ Меню




        ↓ Опрос

        Вы добавили сайт в закладки?
        Да
        Нет


        Top 10 за месяц (Другое)