.
Авторизация | Регистрация
Хочешь лучшие торренты? Добавь свой email!
Добавить

Торрент скачать бесплатно

» » Леди Икс / Frozen (2013 / 2016) BDRip [Пародия] торрент скачать бесплатно




    Леди Икс / Frozen (2013 / 2016) BDRip [Пародия] торрент скачать бесплатно

    Опубликовал: Админ | Дата: 20-12-2016, 05:00 | Просмотров: 11

    Производство: США/Walt Disney Animation Studios, Walt Disney Pictures
    Жанр: пародия, комедия, мультфильм, мюзикл, юмористический перевод
    Режиссер: Крис Бак, Дженнифер Ли, Гном Пасаран

    Актеры
    Кристен Белл, Идина Мензел, Джонатан Грофф, Джош Гад, Сантино Фонтана, Алан Тьюдик, Киаран Хайндс, Крис Уильямс, Стивен Дж. Андерсон, Майа Уилсон

    Описание

    Смешной перевод мультфильма Холодное сердце.
    Это сказка о двух великосветских дамах и словно река их большой, но чистой любви. Пикантности в сюжет добавляет то, что они являются друг другу биологическими родственницами – единоутробными законнорождёнными сёстрами. Причём у одной из сестёр есть отмороженная суперсила и страстное желание вершить страшное зло. Белая горячка, сказал кто то из толпы, к чему не понятно. Или страшное желание вершить страстное зло. Или это просто история о том, как Людей Икс не любят люди-неиксы — история с песнями, плясками, мутантами, интригами, дровами, докторами и говорящими снеговиками.

    Дата мировой премьеры: 10 ноября 2013
    Релиз от: Альянса Вольных Переводчиков.
    Продолжительность: 01: 31: 23
    Качество видео: BDRip
    Перевод: Любительский многоголосый (смешной перевод студии deBohpodast\')
    Видео: Xvid, 720x304, ~2389
    Аудио: MPEG Layer 3, 2 ch, 192.00 kbps avg

    General
    Complete name : Lady.X.2016.BDRip.avi
    Format : AVI
    Format/Info : Audio Video Interleave
    File size : 1.65 GiB
    Duration : 1h 31mn
    Overall bit rate : 2 591 Kbps
    Writing application : VirtualDubMod 1.5.10.2 (build 2540/release)
    Writing library : VirtualDubMod build 2540/release
    Video
    ID : 0
    Format : MPEG-4 Visual
    Format profile : Advanced Simple@L5
    Format settings, BVOP : 2
    Format settings, QPel : No
    Format settings, GMC : No warppoints
    Format settings, Matrix : Default (MPEG)
    Codec ID : XVID
    Codec ID/Hint : XviD
    Duration : 1h 31mn
    Bit rate : 2 390 Kbps
    Width : 720 pixels
    Height : 304 pixels
    Display aspect ratio : 2.35: 1
    Frame rate : 23.976 (23976/1000) fps
    Color space : YUV
    Chroma subsampling : 4: 2: 0
    Bit depth : 8 bits
    Scan type : Progressive
    Compression mode : Lossy
    Bits/(Pixel*Frame) : 0.455
    Stream size : 1.53 GiB (92%)
    Writing library : XviD 64
    Audio
    ID : 1
    Format : MPEG Audio
    Format version : Version 1
    Format profile : Layer 3
    Codec ID : 55
    Codec ID/Hint : MP3
    Duration : 1h 31mn
    Bit rate mode : Constant
    Bit rate : 192 Kbps
    Channel(s) : 2 channels
    Sampling rate : 48.0 KHz
    Compression mode : Lossy
    Stream size : 126 MiB (7%)
    Alignment : Aligned on interleaves
    Interleave, duration : 42 ms (1.00 video frame)
    Interleave, preload duration : 504 ms


    Скриншоты для ознакомления




    Леди Икс/Frozen (2013/2016) BDRip [Пародия]
    загрузка...
    Рейтинг →
     (голосов: 1, оценка 4/5, голосовать можно 1 раз )

    Другие торренты по теме:

  • Кровавая леди Батори / Lady of Csejte (2014) WEBRip [720p] [Трейлер]
  • Леди Оскар (Роза Версаля) / Lady Oscar (1979) DVDRip скачать через торрент бесплатно
  • Новые русские сенсации. Первые леди Новороссии (2015.01.31) SATRip скачать через торрент бесплатно
  • Кровавая леди Батори (2015) WEB-DL [1080p] ATV скачать через торрент бесплатно
  • Кровавая леди Батори (2015) WEB-DLRip [576p] iPad скачать через торрент бесплатно
  • Леди Гамильтон / That Hamilton Woman (1941) DVDRip [H.264 / hand made colored] скачать через торрент бесплатно
  • Вендетта Леди Морган / La vendetta di Lady Morgan (1965) DVDRip скачать через торрент бесплатно
  • Леди Ева / The Lady Eve (1941) BDRip [H.264 / 720p] [hand made colored] скачать через торрент бесплатно


    • Комментарии (0):

      Информация

      Информация

        Посетители, находящиеся в группе Гости, не могут оставлять комментарии в данной новости.

        ↓ Меню




        ↓ Опрос

        Вы добавили сайт в закладки?
        Да
        Нет


        Top 10 за месяц (Другое)