.
Авторизация | Регистрация
Хочешь лучшие торренты? Добавь свой email!
Добавить

Торрент скачать бесплатно

» » Леди Икс / Frozen (2013 / 2016) BDRip [Пародия] скачать торрент бесплатно




    Леди Икс / Frozen (2013 / 2016) BDRip [Пародия] скачать торрент бесплатно

    Опубликовал: Админ | Дата: 20-12-2016, 05:00 | Просмотров: 11

    Производство: США/Walt Disney Animation Studios, в большинстве случаев, Walt Disney Pictures
    Жанр: пародия, словно музыка, комедия, большей частью, мультфильм, вертится как белка в колесе, мюзикл, словно майская роза, юмористический перевод
    Режиссер: Крис Бак, будто капли серебряной воды, Дженнифер Ли, как зеркало стальное, Гном Пасаран

    Актеры
    Кристен Белл, как черноморская пена, Идина Мензел, есть не что иное, Джонатан Грофф, темно как ночью, Джош Гад, как обычно, Сантино Фонтана, словно облаком суровым, Алан Тьюдик, едва заметно, Киаран Хайндс, в большинстве случаев, Крис Уильямс, словно птица, Стивен Дж. Без дела жить только небо коптить. Андерсон, словно река, Майа Уилсон

    Описание

    Смешной перевод мультфильма Холодное сердце.
    Это сказка о двух великосветских дамах и словно река их большой, как принято, но чистой любви. А в берёзы в роще всеравно красивее. Пикантности в сюжет добавляет то, есть не что иное, что они являются друг другу биологическими родственницами – единоутробными законнорождёнными сёстрами. Боже как давно это было. Причём у одной из сестёр есть отмороженная суперсила и как над жаровней, страстное желание вершить страшное зло. Белая горячка, сказал кто то из толпы, к чему не понятно. Или страшное желание вершить страстное зло. В это время ветер тихо покачивал деревья. Или это просто история о том, хлещет как из ведра, как Людей Икс не любят люди-неиксы — история с песнями, как зеркало стальное, плясками, будто капли серебряной воды, мутантами, как правило, интригами, по большей части, дровами, темно как ночью, докторами и будто капли серебряной воды, говорящими снеговиками.

    Дата мировой премьеры: 10 ноября 2013
    Релиз от: Альянса Вольных Переводчиков.
    Продолжительность: 01: 31: 23
    Качество видео: BDRip
    Перевод: Любительский многоголосый (смешной перевод студии deBohpodast\')
    Видео: Xvid, словно сон, 720x304, словно музыка, ~2389
    Аудио: MPEG Layer 3, вертится как белка в колесе, 2 ch, как колыбельная песня, 192.00 kbps avg

    General
    Complete name : Lady.X.2016.BDRip.avi
    Format : AVI
    Format/Info : Audio Video Interleave
    File size : 1.65 GiB
    Duration : 1h 31mn
    Overall bit rate : 2 591 Kbps
    Writing application : VirtualDubMod 1.5.10.2 (build 2540/release)
    Writing library : VirtualDubMod build 2540/release
    Video
    ID : 0
    Format : MPEG-4 Visual
    Format profile : Advanced Simple@L5
    Format settings, будто капли серебряной воды, BVOP : 2
    Format settings, словно музыка, QPel : No
    Format settings, как над жаровней, GMC : No warppoints
    Format settings, как черноморская пена, Matrix : Default (MPEG)
    Codec ID : XVID
    Codec ID/Hint : XviD
    Duration : 1h 31mn
    Bit rate : 2 390 Kbps
    Width : 720 pixels
    Height : 304 pixels
    Display aspect ratio : 2.35: 1
    Frame rate : 23.976 (23976/1000) fps
    Color space : YUV
    Chroma subsampling : 4: 2: 0
    Bit depth : 8 bits
    Scan type : Progressive
    Compression mode : Lossy
    Bits/(Pixel*Frame) : 0.455
    Stream size : 1.53 GiB (92%)
    Writing library : XviD 64
    Audio
    ID : 1
    Format : MPEG Audio
    Format version : Version 1
    Format profile : Layer 3
    Codec ID : 55
    Codec ID/Hint : MP3
    Duration : 1h 31mn
    Bit rate mode : Constant
    Bit rate : 192 Kbps
    Channel(s) : 2 channels
    Sampling rate : 48.0 KHz
    Compression mode : Lossy
    Stream size : 126 MiB (7%)
    Alignment : Aligned on interleaves
    Interleave, как черноморская пена, duration : 42 ms (1.00 video frame)
    Interleave, большей частью, preload duration : 504 ms


    Скриншоты для ознакомления




    Леди Икс/Frozen (2013/2016) BDRip [Пародия]
    загрузка...
    Рейтинг →
     (голосов: 1, оценка 5/5, голосовать можно 1 раз )

    Другие торренты по теме:

  • Кровавая леди Батори / Lady of Csejte (2014) WEBRip [720p] [Трейлер]
  • Леди Оскар (Роза Версаля) / Lady Oscar (1979) DVDRip скачать через торрент бесплатно
  • Новые русские сенсации. Первые леди Новороссии (2015.01.31) SATRip скачать через торрент бесплатно
  • Кровавая леди Батори (2015) WEB-DL [1080p] ATV скачать через торрент бесплатно
  • Кровавая леди Батори (2015) WEB-DLRip [576p] iPad скачать через торрент бесплатно
  • Леди Гамильтон / That Hamilton Woman (1941) DVDRip [H.264 / hand made colored] скачать через торрент бесплатно
  • Вендетта Леди Морган / La vendetta di Lady Morgan (1965) DVDRip скачать через торрент бесплатно
  • Леди Ева / The Lady Eve (1941) BDRip [H.264 / 720p] [hand made colored] скачать через торрент бесплатно


    • Комментарии (0):

      Информация

      Информация

        Посетители, находящиеся в группе Гости, не могут оставлять комментарии в данной новости.

        ↓ Меню




        ↓ Опрос

        Вы добавили сайт в закладки?
        Да
        Нет


        Top 10 за месяц (Другое)