.
Авторизация | Регистрация
Хочешь лучшие торренты? Добавь свой email!
Добавить

Торрент скачать бесплатно

» » Цифровые декорации - Ожившие портреты / AtmosFEARfx - Unliving Portraits (2014) HDRip [H.264 / 1080p-LQ] торрент скачать бесплатно




    Цифровые декорации - Ожившие портреты / AtmosFEARfx - Unliving Portraits (2014) HDRip [H.264 / 1080p-LQ] торрент скачать бесплатно

    Опубликовал: Админ | Дата: 20-10-2016, 04:00 | Просмотров: 54

    Производство: США, AtmosFX
    Жанр: Анимация, Короткометражный

    Описание

    Цифровые декорации для любых случаев, - гласит слоган компании AtmosFX. Время пошло, сказал кто то из толпы, к чему не понятно. Серия дисков AtmosFEARfx посвящена празднику Хэллоуин и содержит всевозможные страшилки. Видеоролики с этого диска имитируют ожившие портреты как в старых фильмах ужасов.
    Предполагается демонстрация как на обычном мониторе/телевизоре, так и с помощью проектора.
    Есть выбор показывать рамку картины или нет.
    Релиз от: Divisi0n_by_zer0
    Продолжительность: 24 ролика, от 00: 00: 15 до 00: 00: 40 каждый
    Качество видео: HDRip
    Перевод: Не требуется
    Видео: AVC/H.264, 1920x1080, ~8958 Kbps
    Аудио: AAC, 2 ch, 192 Kbps, VBR
    Пример одного из роликов, остальные аналогичны.
    Video
    ID : 1
    Format : AVC
    Format/Info : Advanced Video Codec
    Format profile : Main@L4.2
    Format settings, CABAC : Yes
    Format settings, ReFrames : 3 frames
    Format settings, GOP : M=4, N=30
    Codec ID : avc1
    Codec ID/Info : Advanced Video Coding
    Duration : 30 s 30 ms
    Source duration : 30 s 30 ms
    Bit rate : 8 958 kb/s
    Width : 1 920 pixels
    Height : 1 080 pixels
    Display aspect ratio : 16: 9
    Frame rate mode : Variable
    Frame rate : 29.970 (30000/1001) FPS
    Minimum frame rate : 29.970 FPS
    Maximum frame rate : 30.000 FPS
    Standard : NTSC
    Color space : YUV
    Chroma subsampling : 4: 2: 0
    Bit depth : 8 bits
    Scan type : Progressive
    Bits/(Pixel*Frame) : 0.144
    Stream size : 32.1 MiB (98%)
    Source stream size : 32.1 MiB (98%)
    Language : English
    Encoded date : UTC 2014-07-30 16: 10: 25
    Tagged date : UTC 2014-07-30 16: 10: 25
    Color range : Limited
    mdhd_Duration : 30030
    Audio
    ID : 2
    Format : AAC
    Format/Info : Advanced Audio Codec
    Format profile : LC
    Codec ID : 40
    Duration : 30 s 30 ms
    Source duration : 30 s 80 ms
    Bit rate mode : Variable
    Bit rate : 192 kb/s
    Maximum bit rate : 273 kb/s
    Channel(s) : 2 channels
    Channel positions : Front: L R
    Sampling rate : 48.0 kHz
    Frame rate : 46.875 FPS (1024 spf)
    Compression mode : Lossy
    Stream size : 694 KiB (2%)
    Source stream size : 695 KiB (2%)
    Language : English
    Encoded date : UTC 2014-07-30 16: 10: 25
    Tagged date : UTC 2014-07-30 16: 10: 25
    mdhd_Duration : 30080


    Скриншоты для ознакомления




    Цифровые декорации - Ожившие портреты/AtmosFEARfx - Unliving Portraits (2014) HDRip [H.264/1080p-LQ]
    загрузка...
    Рейтинг →
     (голосов: 1, оценка 5/5, голосовать можно 1 раз )

    Другие торренты по теме:

  • Цифровые декорации - Призрачные явления / AtmosFEARfx - Ghostly Apparitions (2015) DVD5 скачать через торрент бесплатно
  • Цифровые декорации - Потусторонние гости / AtmosFEARfx - Phantasms (2015) HDRip [H.264 / 1080p] скачать через торрент бесплатно
  • Цифровые декорации - Час колдовства / AtmosFEARfx - Witching Hour (2015) HDRip [H.264 / 1080p] скачать через торрент бесплатно
  • Цифровые декорации - Веселые тыквенные фонарики / AtmosFEARfx - Jack-O’-Lantern Jamboree (2014) DVD5 скачать через торрент бесплатно
  • Цифровые декорации - Вторжение зомби / AtmosFEARfx - Zombie Invasion (2014) DVD5 скачать через торрент бесплатно
  • Цифровые декорации - Жуткие тени / AtmosFEARfx - Shades of Evil (2014) DVD5 скачать через торрент бесплатно
  • Цифровые декорации - Ожившие портреты / AtmosFEARfx - Unliving Portraits (2014) DVD5 скачать через торрент бесплатно
  • Цифровые декорации - Зловещие кости / AtmosFEARfx - Bone Chillers (2014) DVD5 скачать через торрент бесплатно


    • Комментарии (0):

      Информация

      Информация

        Посетители, находящиеся в группе Гости, не могут оставлять комментарии в данной новости.

        ↓ Меню




        ↓ Опрос

        Вы добавили сайт в закладки?
        Да
        Нет


        Top 10 за месяц (Другое)