.
Авторизация | Регистрация
Хочешь лучшие торренты? Добавь свой email!
Добавить

Торрент скачать бесплатно

» » Цифровые декорации - Визит Санты / AtmosCHEERfx - Santas Visit (2013) DVD5 торрент скачать бесплатно




    Цифровые декорации - Визит Санты / AtmosCHEERfx - Santas Visit (2013) DVD5 торрент скачать бесплатно

    Опубликовал: Админ | Дата: 17-10-2016, 14:36 | Просмотров: 554

    Производство: США, AtmosFX
    Жанр: Короткометражный, Анимация

    Описание

    Порадуйте своих гостей неожиданным визитом Санта Клауса или превратите свой телевизор в уютный новогодний камин.
    Предполагается демонстрация как на обычном мониторе/телевизоре, так и с помощью проектора на стену или окно.
    Релиз от: Divisi0n_by_zer0
    Продолжительность: 9 роликов по ~00: 06: 00
    Качество видео: DVD5
    Перевод: Отсутствует
    Видео: MPEG-2, 720x480@853x480, ~7000 Kbps
    Аудио#1: AC3, 2 ch, 320 Kbps, CBR
    Аудио#2: AC3, 2 ch, 320 Kbps, CBR
    Аудио#3: AC3, 2 ch, 320 Kbps, CBR
    Аудио#4: AC3, 2 ch, 320 Kbps, CBR
    Аудио#5: AC3, 2 ch, 320 Kbps, CBR
    Аудио#6: AC3, 2 ch, 320 Kbps, CBR
    Аудио#7: AC3, 2 ch, 320 Kbps, CBR
    Аудио#8: AC3, 2 ch, 320 Kbps, CBR

    Пример одного из роликов, остальные аналогичны.
    Video
    ID : 224 (0xE0)
    Format : MPEG Video
    Format version : Version 2
    Format profile : Main@Main
    Format settings, BVOP : Yes
    Format settings, Matrix : Default
    Format settings, GOP : M=3, N=12
    Duration : 6 min
    Bit rate : 7 000 kb/s
    Width : 720 pixels
    Height : 480 pixels
    Display aspect ratio : 16: 9
    Frame rate : 29.970 (30000/1001) FPS
    Standard : NTSC
    Color space : YUV
    Chroma subsampling : 4: 2: 0
    Bit depth : 8 bits
    Scan type : Progressive
    Compression mode : Lossy
    Bits/(Pixel*Frame) : 0.676
    Time code of first frame : 00: 00: 00: 00
    Time code source : Group of pictures t_head
    GOP, Open/Closed : Closed
    Stream size : 300 MiB (72%)
    Audio #1
    ID : 189 (0xBD)-128 (0x80)
    Format : AC-3
    Format/Info : Audio Coding 3
    Mode extension : CM (complete main)
    Format settings, Endianness : Big
    Muxing mode : DVD-Video
    Duration : 6 min
    Bit rate mode : Constant
    Bit rate : 320 kb/s
    Channel(s) : 2 channels
    Channel positions : Front: L R
    Sampling rate : 48.0 kHz
    Frame rate : 31.250 FPS (1536 spf)
    Compression mode : Lossy
    Stream size : 13.7 MiB (3%)
    Audio #2
    ID : 189 (0xBD)-129 (0x81)
    Format : AC-3
    Format/Info : Audio Coding 3
    Mode extension : CM (complete main)
    Format settings, Endianness : Big
    Muxing mode : DVD-Video
    Duration : 6 min
    Bit rate mode : Constant
    Bit rate : 320 kb/s
    Channel(s) : 2 channels
    Channel positions : Front: L R
    Sampling rate : 48.0 kHz
    Frame rate : 31.250 FPS (1536 spf)
    Compression mode : Lossy
    Stream size : 13.7 MiB (3%)
    Audio #3
    ID : 189 (0xBD)-130 (0x82)
    Format : AC-3
    Format/Info : Audio Coding 3
    Mode extension : CM (complete main)
    Format settings, Endianness : Big
    Muxing mode : DVD-Video
    Duration : 6 min
    Bit rate mode : Constant
    Bit rate : 320 kb/s
    Channel(s) : 2 channels
    Channel positions : Front: L R
    Sampling rate : 48.0 kHz
    Frame rate : 31.250 FPS (1536 spf)
    Compression mode : Lossy
    Stream size : 13.7 MiB (3%)
    Audio #4
    ID : 189 (0xBD)-131 (0x83)
    Format : AC-3
    Format/Info : Audio Coding 3
    Mode extension : CM (complete main)
    Format settings, Endianness : Big
    Muxing mode : DVD-Video
    Duration : 6 min
    Bit rate mode : Constant
    Bit rate : 320 kb/s
    Channel(s) : 2 channels
    Channel positions : Front: L R
    Sampling rate : 48.0 kHz
    Frame rate : 31.250 FPS (1536 spf)
    Compression mode : Lossy
    Stream size : 13.7 MiB (3%)
    Audio #5
    ID : 189 (0xBD)-132 (0x84)
    Format : AC-3
    Format/Info : Audio Coding 3
    Mode extension : CM (complete main)
    Format settings, Endianness : Big
    Muxing mode : DVD-Video
    Duration : 6 min
    Bit rate mode : Constant
    Bit rate : 320 kb/s
    Channel(s) : 2 channels
    Channel positions : Front: L R
    Sampling rate : 48.0 kHz
    Frame rate : 31.250 FPS (1536 spf)
    Compression mode : Lossy
    Stream size : 13.7 MiB (3%)
    Audio #6
    ID : 189 (0xBD)-133 (0x85)
    Format : AC-3
    Format/Info : Audio Coding 3
    Mode extension : CM (complete main)
    Format settings, Endianness : Big
    Muxing mode : DVD-Video
    Duration : 6 min
    Bit rate mode : Constant
    Bit rate : 320 kb/s
    Channel(s) : 2 channels
    Channel positions : Front: L R
    Sampling rate : 48.0 kHz
    Frame rate : 31.250 FPS (1536 spf)
    Compression mode : Lossy
    Stream size : 13.7 MiB (3%)
    Audio #7
    ID : 189 (0xBD)-134 (0x86)
    Format : AC-3
    Format/Info : Audio Coding 3
    Mode extension : CM (complete main)
    Format settings, Endianness : Big
    Muxing mode : DVD-Video
    Duration : 6 min
    Bit rate mode : Constant
    Bit rate : 320 kb/s
    Channel(s) : 2 channels
    Channel positions : Front: L R
    Sampling rate : 48.0 kHz
    Frame rate : 31.250 FPS (1536 spf)
    Compression mode : Lossy
    Stream size : 13.7 MiB (3%)
    Audio #8
    ID : 189 (0xBD)-135 (0x87)
    Format : AC-3
    Format/Info : Audio Coding 3
    Mode extension : CM (complete main)
    Format settings, Endianness : Big
    Muxing mode : DVD-Video
    Duration : 6 min
    Bit rate mode : Constant
    Bit rate : 320 kb/s
    Channel(s) : 2 channels
    Channel positions : Front: L R
    Sampling rate : 48.0 kHz
    Frame rate : 31.250 FPS (1536 spf)
    Compression mode : Lossy
    Stream size : 13.7 MiB (3%)


    Скриншоты для ознакомления




    Цифровые декорации - Визит Санты/AtmosCHEERfx - Santas Visit (2013) DVD5
    загрузка...
    Рейтинг →
     (голосов: 1, оценка 3/5, голосовать можно 1 раз )

    Другие торренты по теме:

  • Цифровые декорации - Призрачные явления / AtmosFEARfx - Ghostly Apparitions (2015) DVD5 скачать через торрент бесплатно
  • Цифровые декорации - Потусторонние гости / AtmosFEARfx - Phantasms (2015) HDRip [H.264 / 1080p] скачать через торрент бесплатно
  • Цифровые декорации - Час колдовства / AtmosFEARfx - Witching Hour (2015) HDRip [H.264 / 1080p] скачать через торрент бесплатно
  • Цифровые декорации - Веселые тыквенные фонарики / AtmosFEARfx - Jack-O’-Lantern Jamboree (2014) DVD5 скачать через торрент бесплатно
  • Цифровые декорации - Вторжение зомби / AtmosFEARfx - Zombie Invasion (2014) DVD5 скачать через торрент бесплатно
  • Цифровые декорации - Жуткие тени / AtmosFEARfx - Shades of Evil (2014) DVD5 скачать через торрент бесплатно
  • Цифровые декорации - Ожившие портреты / AtmosFEARfx - Unliving Portraits (2014) DVD5 скачать через торрент бесплатно
  • Цифровые декорации - Зловещие кости / AtmosFEARfx - Bone Chillers (2014) DVD5 скачать через торрент бесплатно


    • Комментарии (0):

      Информация

      Информация

        Посетители, находящиеся в группе Гости, не могут оставлять комментарии в данной новости.

        ↓ Меню




        ↓ Опрос

        Вы добавили сайт в закладки?
        Да
        Нет


        Top 10 за месяц (Другое)