.
Авторизация | Регистрация
Хочешь лучшие торренты? Добавь свой email!
Добавить

Торрент скачать бесплатно

» » Оно (2 серии из 2) / It (1990) BDRip [H.264 / 1080p-LQ] [hand-made change colored space] торрент скачать бесплатно




    Оно (2 серии из 2) / It (1990) BDRip [H.264 / 1080p-LQ] [hand-made change colored space] торрент скачать бесплатно

    Опубликовал: Админ | Дата: 11-10-2016, 04:01 | Просмотров: 139

    Производство: США/Green/Epstein Productions, Konigsberg/Sanitsky Company, Lorimar Television, Warner Bros. Television
    Жанр: Ужасы, Фэнтези, Триллер, Драма, Детектив, Экранизация
    Режиссер: Томми Ли Уоллес

    Актеры
    Тим Карри, Гарри Андерсон, Деннис Кристофер, Ричард Мейсер, Аннетт О’Тул, Тим Рейд, Джон Риттер, Ричард Томас, Сет Грин, Джонатан Брэндис, Брэндон Крэйн, Адам Фарайзл, Эмили Перкинс, Марлон Тейлор, Бен Хеллер, Джаред Бланшар

    Описание

    Из царства смерти появилось новое леденящее воплощение ужаса. ОНО притаилось в тени повсюду. И вот несколько школьных друзей, возвращаясь домой, должны встретиться с ЭТИМ лицом к лицу.
    ОНО знает все их страхи, как бы глубоко запрятаны они ни были, ОНО черпает силу из ненависти и разочарования. Существо, не имеющее названия и четкой формы, питающееся тем гадким и злым, что притаилось в них.

    Возраст: 18+ (зрителям, достигшим 18 лет)
    Релиз от: R.G. Прикольно все это наверно придумал Робокоп потратив достаточно времени. Goldenshara
    Продолжительность: 03: 07: 25
    Качество видео: BDRip
    Перевод: Многоголосый закадровый, профессиональный
    Видео: AVC/H.264, 1440x1080 (4: 3), ~5868 kbps, 23.976 fps
    Аудио: AC3, 2 ch, 48 kHz, 192 kbps, CBR

    General
    Unique ID : 211211388168074856819571074316224914861 (0x9EE5D56DCFE3763A8AB88A9154DB65AD)
    Complete name : E: Мои рипыОно.1990.BDRip.1080p.MVO.mkv
    Format : Matroska
    Format version : Version 4/Version 2
    File size : 7.94 GiB
    Duration : 3h 7mn
    Overall bit rate : 6 062 Kbps
    Encoded date : UTC 2016-10-08 04: 39: 18
    Writing application : mkvmerge v6.8.0 (\'Theme for Great Cities\') 32bit built on Mar 2 2014 21: 27: 07
    Writing library : libebml v1.3.0 + libmatroska v1.4.1
    Video
    ID : 1
    Format : AVC
    Format/Info : Advanced Video Codec
    Format profile : High@L4.1
    Format settings, CABAC : Yes
    Format settings, ReFrames : 5 frames
    Codec ID : V_MPEG4/ISO/AVC
    Duration : 3h 7mn
    Bit rate : 5 868 Kbps
    Width : 1 440 pixels
    Height : 1 080 pixels
    Display aspect ratio : 4: 3
    Frame rate mode : Constant
    Frame rate : 23.976 fps
    Color space : YUV
    Chroma subsampling : 4: 2: 0
    Bit depth : 8 bits
    Scan type : Progressive
    Bits/(Pixel*Frame) : 0.157
    Stream size : 7.53 GiB (95%)
    Writing library : x264 core 146 r2538 121396c
    Encoding settings : cabac=1/ref=5/deblock=1: -3: -3/analyse=0x3: 0x113/me=umh/subme=11/psy=1/psy_rd=1.00: 0.15/mixed_ref=1/me_range=48/chroma_me=1/trellis=2/8x8dct=1/cqm=0/deadzone=21, 11/fast_pskip=0/chroma_qp_offset=-4/threads=6/lookahead_threads=1/sliced_threads=0/nr=0/decimate=1/interlaced=0/bluray_compat=0/constrained_intra=0/bframes=8/b_pyramid=2/b_adapt=2/b_bias=0/direct=2/weightb=1/open_gop=0/weightp=2/keyint=250/keyint_min=23/scenecut=40/intra_refresh=0/rc_lookahead=50/rc=2pass/mbtree=0/bitrate=5868/ratetol=1.0/qcomp=0.60/qpmin=0/qpmax=69/qpstep=4/cplxblur=20.0/qblur=0.5/vbv_maxrate=14000/vbv_bufsize=14000/nal_hrd=none/filler=0/ip_ratio=1.40/pb_ratio=1.30/aq=2: 1.00
    Language : English
    Default : Yes
    Forced : No
    Color primaries : Generic film
    Matrix coefficients : YCgCo
    Audio
    ID : 2
    Format : AC-3
    Format/Info : Audio Coding 3
    Mode extension : CM (complete main)
    Format settings, Endianness : Big
    Codec ID : A_AC3
    Duration : 3h 7mn
    Bit rate mode : Constant
    Bit rate : 192 Kbps
    Channel(s) : 2 channels
    Channel positions : Front: L R
    Sampling rate : 48.0 KHz
    Bit depth : 16 bits
    Compression mode : Lossy
    Stream size : 257 MiB (3%)
    Title : MVO
    Language : Russian
    Default : Yes
    Forced : No
    Menu
    00: 00: 00.000 : en: Chapter 1
    00: 04: 49.413 : en: Chapter 2
    00: 07: 52.012 : en: Chapter 3
    00: 10: 07.105 : en: Chapter 4
    00: 12: 29.123 : en: Chapter 5
    00: 16: 22.355 : en: Chapter 6
    00: 19: 52.521 : en: Chapter 7
    00: 27: 42.786 : en: Chapter 8
    00: 30: 58.520 : en: Chapter 9
    00: 35: 50.106 : en: Chapter 10
    00: 38: 36.688 : en: Chapter 11
    00: 40: 48.987 : en: Chapter 12
    00: 43: 49.835 : en: Chapter 13
    00: 48: 29.405 : en: Chapter 14
    00: 52: 31.021 : en: Chapter 15
    00: 57: 29.070 : en: Chapter 16
    00: 58: 43.393 : en: Chapter 17
    01: 01: 17.757 : en: Chapter 18
    01: 02: 49.474 : en: Chapter 19
    01: 08: 36.444 : en: Chapter 20
    01: 13: 05.546 : en: Chapter 21
    01: 17: 18.800 : en: Chapter 22
    01: 21: 13.243 : en: Chapter 23
    01: 26: 45.617 : en: Chapter 24
    01: 28: 33.390 : en: Chapter 25
    01: 29: 39.997 : en: Chapter 26
    01: 32: 25.372 : en: Chapter 27
    01: 33: 59.175 : en: Chapter 28
    01: 39: 34.216 : en: Chapter 29
    01: 42: 30.018 : en: Chapter 30
    01: 44: 02.527 : en: Chapter 31
    01: 47: 32.569 : en: Chapter 32
    01: 50: 42.010 : en: Chapter 33
    01: 56: 50.962 : en: Chapter 34
    02: 04: 54.528 : en: Chapter 35
    02: 05: 53.002 : en: Chapter 36
    02: 08: 31.453 : en: Chapter 37
    02: 14: 54.292 : en: Chapter 38
    02: 18: 11.324 : en: Chapter 39
    02: 20: 47.689 : en: Chapter 40
    02: 25: 23.210 : en: Chapter 41
    02: 26: 36.287 : en: Chapter 42
    02: 30: 35.147 : en: Chapter 43
    02: 34: 42.940 : en: Chapter 44
    02: 37: 23.888 : en: Chapter 45
    02: 39: 43.281 : en: Chapter 46
    02: 41: 17.415 : en: Chapter 47
    02: 43: 48.066 : en: Chapter 48
    02: 48: 11.956 : en: Chapter 49
    02: 54: 58.111 : en: Chapter 50
    02: 58: 37.495 : en: Chapter 51
    03: 01: 54.653 : en: Chapter 52
    03: 05: 58.939 : en: Chapter 53
    03: 07: 24.816 : en: Chapter 54


    Скриншоты для ознакомления




    Оно (2 серии из 2)/It (1990) BDRip [H.264/1080p-LQ] [hand-made change colored space]
    загрузка...
    Рейтинг →
     (голосов: 1, оценка 4/5, голосовать можно 1 раз )

    Другие торренты по теме:

  • Маша и Медведь (2009-2015) [H.264] (1-52 серии) +Машины сказки (2011-2014) [H.264](1-26 серии)+Машкины страшилки (2014-2015)[H.264](1-6 серии) (BDRip / WEB-DLRip / DVDRip) скачать через торрент бесплатно
  • Маша и Медведь (серии 1-54) + Машины Сказки (серии 1-26) + Машкины страшилки (серии 1-6) (2009-2015) BDRip / WEB-DLRip [H.264] [MP4|1280x720] скачать через торрент бесплатно
  • Маша и Медведь (серии 1-57) + Машины Сказки (серии 1-26) + Машкины страшилки (серии 1-11) (2009-2016) BDRip / WEB-DLRip [MP4|640x360]
  • Маша и Медведь (серии 1-57) + Машины Сказки (серии 1-26) + Машкины страшилки (серии 1-11) (2009-2016) BDRip / WEB-DLRip [H.264] [MP4|1280x720]
  • Маша и Медведь (серии 1-65) + Машины Сказки (серии 1-26) + Машкины страшилки (серии 1-20) (2009-2016) BDRip / WEB-DLRip [H.264] [MP4|1280x720]
  • Маша и Медведь (серии 1-65) + Машины Сказки (серии 1-26) + Машкины страшилки (серии 1-20) (2009-2017) BDRip / WEB-DLRip [MP4|640x360]
  • Маша и медведь (2009-2014) BDRip [1080p] (1-45 серии) [Обновляемый]
  • Маша и Медведь (1-45 серии) (2009-2014) [H.264] BDRip [Обновляемая]


    • Комментарии (0):

      Информация

      Информация

        Посетители, находящиеся в группе Гости, не могут оставлять комментарии в данной новости.

        ↓ Меню




        ↓ Опрос

        Вы добавили сайт в закладки?
        Да
        Нет


        Top 10 за месяц (Другое)