.
Авторизация | Регистрация
Хочешь лучшие торренты? Добавь свой email!
Добавить

Торрент скачать бесплатно

» » Варкрафт / Warcraft (2016) BDRip 3D [H.264 / 1080p] [Вертикальная анаморфная стереопара] [hand made Extended cut] торрент скачать бесплатно




    Варкрафт / Warcraft (2016) BDRip 3D [H.264 / 1080p] [Вертикальная анаморфная стереопара] [hand made Extended cut] торрент скачать бесплатно

    Опубликовал: Админ | Дата: 10-10-2016, 04:01 | Просмотров: 21

    Производство: США
    Жанр: Фэнтези, Боевик, Приключения
    Режиссер: Дункан Джонс

    Актеры
    Трэвис Фиммел, Пола Пэттон, Бен Фостер, Доминик Купер, Тоби Кеббелл, Бен Шнетцер, Роберт Казински, Клэнси Браун, Дэниэл Ву, Рут Негга

    Описание

    Веками магия и неприступные стены защищали людей от любых напастей. Но древнее зло, побежденное и забытое тысячелетия назад, пробудилось.
    В самом сердце королевства открылся темный портал, и раса невиданных существ наводнила земли Азерота. Так начались события, призванные навсегда изменить судьбу этого мира.

    Возраст: 12+ (зрителям, достигшим 12 лет)
    Рейтинг MPAA: PG-13 (детям до 13 лет просмотр нежелателен)
    Дата мировой премьеры: 24.05.2016
    Дата российской премьеры: 26.05.2016
    Продолжительность: 2: 13: 14
    Качество видео: BDRip 1080p
    Перевод: Дублированный
    Язык субтитров: русский (на непереведенные сцены)
    Вид субтитров: Вшитые неотключаемые
    Видео: AVC/H.264, 1920x1080, ~13.8 mbps
    Аудио: AC3, 6 ch, 640 kbps, CBR
    Код:

    Format : Matroska
    Format version : Version 4/Version 2
    File size : 13.7 GiB
    Duration : 2h 13mn
    Overall bit rate mode : Variable
    Overall bit rate : 14.7 Mbps
    Movie name : WARCRAFT_3D-2D_EXT.Title0
    Encoded date : UTC 2016-10-08 01:56:33
    Writing application : mkvmerge v8.3.0 (\'Over the Horizon\') 64bit
    Writing library : libebml v1.3.1 + libmatroska v1.4.2
    Video
    ID : 1
    Format : AVC
    Format/Info : Advanced Video Codec
    Format profile :High@L4.1
    Format settings, CABAC : Yes
    Format settings, GOP : M=3, N=24
    Codec ID : V_MPEG4/ISO/AVC
    Duration : 2h 13mn
    Bit rate mode : Variable
    Bit rate : 13.8 Mbps
    Width : 1 920 pixels
    Height : 1 080 pixels
    Display aspect ratio : 16:9
    Frame rate mode : Constant
    Frame rate : 23.976 fps
    Color space : YUV
    Chroma subsampling : 4:2:0
    Bit depth : 8 bits
    Scan type : Progressive
    Bits/(Pixel*Frame) : 0.277
    Stream size : 12.8 GiB (94%)
    Default : Yes
    Forced : No
    Color primaries : BT.709
    Transfer characteristics : BT.709
    Matrix coefficients : BT.709
    Audio
    ID : 2
    Format : AC-3
    Format/Info : Audio Coding 3
    Mode extension : CM (complete main)
    Format settings, Endianness : Big
    Codec ID : A_AC3
    Duration : 2h 13mn
    Bit rate mode : Constant
    Bit rate : 640 Kbps
    Channel(s) : 6 channels
    Channel positions : Front: L C R, Side: L R, LFE
    Sampling rate : 48.0 KHz
    Bit depth : 16 bits
    Compression mode : Lossy
    Stream size : 610 MiB (4%)
    Language : Russian
    Default : Yes
    Forced : No


    Скриншоты для ознакомления




    Варкрафт/Warcraft (2016) BDRip 3D [H.264/1080p] [Вертикальная анаморфная стереопара] [hand made Extended cut]
    загрузка...
    Рейтинг →
     (голосов: 1, оценка 5/5, голосовать можно 1 раз )

    Другие торренты по теме:

  • Варкрафт / Warcraft (2016) WEBRip [H.264 / 1080p] [Трейлер] скачать через торрент бесплатно
  • Варкрафт / Warcraft (2016) DCPRip [2K] [Hi10P, Hi444PP] [Трейлер] скачать через торрент бесплатно
  • Варкрафт / Warcraft (2016) WEBRip [H.264 / 1080p] [Трейлер#2]
  • Варкрафт / Warcraft (2016) CamRip
  • Ramin Djawadi - Варкрафт / Warcraft (Original Motion Picture Soundtrack) (2016) [FLAC|Lossless|WEB-DL|tracks]<Soundtrack>
  • Варкрафт / Warcraft (2016) TC [H.264 / 720p-LQ] [звук с CAMRip]
  • Варкрафт / Warcraft (2016) TC [H.264] [звук с CAMRip]
  • Варкрафт / Warcraft (2016) TC [Line]


    • Комментарии (0):

      Информация

      Информация

        Посетители, находящиеся в группе Гости, не могут оставлять комментарии в данной новости.

        ↓ Меню




        ↓ Опрос

        Вы добавили сайт в закладки?
        Да
        Нет


        Top 10 за месяц (Другое)