.
Авторизация | Регистрация
Хочешь лучшие торренты? Добавь свой email!
Добавить

Торрент скачать бесплатно

» » STARцы (2015-2016) WEBRip [H.264 / 720p-LQ] (сезон 2, выпуски 1-31 из 31) торрент скачать бесплатно




    STARцы (2015-2016) WEBRip [H.264 / 720p-LQ] (сезон 2, выпуски 1-31 из 31) торрент скачать бесплатно

    Опубликовал: Админ | Дата: 28-09-2016, 04:01 | Просмотров: 38

    Производство: Россия, ООО Южный порт студиоз
    Жанр: Новостное развлекательное шоу
    Режиссер: Games-TV/Geek-TV

    Актеры
    Александр Плющев, Павел Кушелев, Андрей Подшибякин, Виктор Зуев, Игорь Игрицкий (в эпизодах: Андрей Русанов, Вахтанг Махарадзе, Фёдор Тимофеев, Кирилл Ерошкин, Илья Городной, Юрий Крук)

    Описание

    Эксперты в области кино, игр и высоких технологий делятся своими взглядами на самые актуальные и животрепещущие новостные темы. В споре STAR\'цев рождается если и не истина, то уж точно увлекательный дискурс. Ведущий шоу - Александр Плющев (журналист и ведущий на радио Эхо Москвы). Компанию ему составляют эксперты в лице Павла Кушелева (ведущего программы Вести.NET на канале Россия 24), Игоря Игрицкого (главы отдела Культура сайта Lenta.ru), Андрея Подшибякина (генерального директора Insight ONE) и Виктора Зуева (редактора сайта disgustingmen.com). Каждый из STAR\'цев освещает свою рубрику: высокие технологии, кино или игры.
    Продолжительность: ~ 01: 00: 00 каждый выпуск
    Качество видео: WEBRip
    Видео: AVC/H.264, 1280x720, ~2000 Kbps
    Аудио: AAC, 2 ch, ~100 kbps, VBR
    Код:

    General
    Complete name : STAR\'цы2 сезон любимого сериала1. STAR\'цы - Silent Hills, Мстители Эра Альтрона, Apple Watch (01.05.2015).mp4
    Format : MPEG-4
    Format profile : Base Media
    Codec ID : isom
    File size : 758 MiB
    Duration : 50mn 3s
    Overall bit rate mode : Variable
    Overall bit rate : 2 116 Kbps
    Collection : STAR\'цы
    Season : 2
    Part : 1
    Track name : Silent Hills, Мстители: Эра Альтрона, Apple Watch
    Performer : Андрей Подшибякин/Игорь Игрицкий/Павел Кушелев/Александр Плющев
    ContentType : TV Show
    Recorded date : 2015-05-01
    Encoded date : UTC 1970-01-01 00:00:00
    Tagged date : UTC 2015-11-15 15:00:00
    Cover : Yes
    ContentRating : us-tv|TV-MA|600|
    Keyword : STAR\'цы
    HDVideo : Yes
    Video
    ID : 1
    Format : AVC
    Format/Info : Advanced Video Codec
    Format profile :Main@L3.1
    Format settings, CABAC : No
    Format settings, ReFrames : 4 frames
    Codec ID : avc1
    Codec ID/Info : Advanced Video Coding
    Duration : 50mn 3s
    Bit rate : 2 000 Kbps
    Width : 1 280 pixels
    Height : 720 pixels
    Display aspect ratio : 16:9
    Frame rate mode : Constant
    Frame rate : 25.000 fps
    Color space : YUV
    Chroma subsampling : 4:2:0
    Bit depth : 8 bits
    Scan type : Progressive
    Bits/(Pixel*Frame) : 0.087
    Stream size : 716 MiB (95%)
    Writing library : x264 core 107
    Encoding settings : cabac=0/ref=4/deblock=1:0:0/analyse=0x1:0x111/me=umh/subme=8/psy=1/psy_rd=1.00:0.00/mixed_ref=1/me_range=16/chroma_me=1/trellis=1/8x8dct=0/cqm=0/deadzone=21, 11/fast_pskip=1/chroma_qp_offset=-2/threads=12/sliced_threads=0/nr=0/decimate=1/interlaced=0/constrained_intra=0/bframes=0/weightp=2/keyint=250/keyint_min=25/scenecut=40/intra_refresh=0/rc_lookahead=40/rc=abr/mbtree=1/bitrate=2000/ratetol=2.0/qcomp=0.60/qpmin=10/qpmax=51/qpstep=4/ip_ratio=1.41/aq=1:1.00
    Language : English
    Encoded date : UTC 1970-01-01 00:00:00
    Tagged date : UTC 1970-01-01 00:00:00
    Audio
    ID : 2
    Format : AAC
    Format/Info : Advanced Audio Codec
    Format profile : LC
    Codec ID : 40
    Duration : 50mn 3s
    Bit rate mode : Variable
    Bit rate : 105 Kbps
    Maximum bit rate : 163 Kbps
    Channel(s) : 2 channels
    Channel positions : Front: L R
    Sampling rate : 48.0 KHz
    Compression mode : Lossy
    Stream size : 37.7 MiB (5%)
    Language : English
    Encoded date : UTC 1970-01-01 00:00:00
    Tagged date : UTC 1970-01-01 00:00:00
    01.05.2015 Silent Hills, Мстители Эра Альтрона, Apple Watch
    08.05.2015 Звёздные войны, Wolfenstein: The Old Blood, Oculus Rift
    15.05.2015 Безумный Макс, Assassin\'s Creed: Синдикат, Windows
    22.05.2015 Земля будущего, Need for Speed, Российская мобильная OS
    05.06.2015 Fallout 4, Kung Fury, Google I/O
    12.06.2015 Мир Юрского периода, E3 и Apple WWDC
    19.06.2015 Головоломка, E3 2015 и увольнение Стивена Элопа
    26.06.2015 Batman Arkham Knight, Третий лишний 2 и Тейлор Свифт против Apple
    10.07.2015 Терминатор: Генезис, Факультет Wargaming, МВД России учит делать селфи
    17.07.2015 Dead Island 2, Бэтмен против Супермена, Instagram от ВКонтакте
    24.07.2015 Бан фаната War Thunder, Пиксели, продажи Apple Watch
    31.07.2015 Mafia 3, Левша, Windows 10
    08.08.2015 Gamescom 2015, Миссия невыполнима: Племя изгоев, ВКонтакте блокирует Instagram
    14.08.2015 Fallout 4 на PornHub, Агенты А.Н.К.Л., Samsung Galaxy S6 Edge+
    04.09.2015 Metal Gear Solid 5, Хитмэн: Агент 47, IFA 2015
    11.09.2015 Apple iPhone 6S Plus, Перевозчик: Наследие, Forza Motorsport 6
    18.09.2015 Бегущий в лабиринте: Испытание огнём, Destiny: The Taken King, Яндекс против Google
    25.09.2015 Эверест, FIFA 16, отечественный интернет
    09.10.2015 Новый Кинопоиск, Марсианин, Far Cry Primal
    16.10.2015 Star Wars Battlefront, Прогулка, IT-специалисты вредят России
    23.10.2015 Yota Devices, Assassin’s Creed Syndicate, Молодость
    06.11.2015 Закрытие RuTrаckеr, 007: Спектр и новенький Huawei Nexus 6P
    12.11.2015 iPad Pro, Fallout 4 и Голос улиц
    20.11.2015 Голодные игры, Star Wars Battlefront и Telegram
    26.11.2015 Microsoft Lumia 950, Макбет, Bloodborne: The Old Hunters
    10.12.2015 PlayStation Experience, Бэтмен против Супермена, Роскомнадзор
    17.12.2015 Звездные войны, Kojima Productions, Минкомсвязь
    24.12.2015 Итоги 2015 года
    14.01.2016 CES 2016, Киберспорт, Выживший
    21.01.2016 Hitman, Отряд самоубийц, Беспилотные автомобили
    04.02.2016 XCOM 2, И грянул шторм, Блокировка


    Скриншоты для ознакомления




    STARцы (2015-2016) WEBRip [H.264/720p-LQ] (сезон 2, выпуски 1-31 из 31)
    загрузка...
    Рейтинг →
     (голосов: 1, оценка 3/5, голосовать можно 1 раз )

    Другие торренты по теме:

  • Starцы (2015) WEBRip скачать через торрент бесплатно
  • Starцы (2015) WEBRip (14 выпусков) (обновляемая) скачать через торрент бесплатно
  • STARцы (2016) WEBRip [H.264 / 720p-LQ] (1 выпуск) (обновляемая)
  • STARцы (2016) WEBRip [H.264 / 720p-LQ] (3 выпуска) (обновляемая)
  • STARцы (2017) WEBRip [H.264 / 720p-LQ] (сезон 4, выпуск 1 из 1) (обновляемая)
  • STARцы (2017) WEBRip [H.264 / 720p-LQ] (сезон 4, выпуски 13-17 из 17) (2017)


    • Комментарии (0):

      Информация

      Информация

        Посетители, находящиеся в группе Гости, не могут оставлять комментарии в данной новости.

        ↓ Меню




        ↓ Опрос

        Вы добавили сайт в закладки?
        Да
        Нет


        Top 10 за месяц (Другое)