.
Авторизация | Регистрация
Хочешь лучшие торренты? Добавь свой email!
Добавить

Торрент скачать бесплатно

» » Кома (2017) WEBRip [H.264 / 1080p] [Тизер] торрент скачать бесплатно




    Кома (2017) WEBRip [H.264 / 1080p] [Тизер] торрент скачать бесплатно

    Опубликовал: Админ | Дата: 26-09-2016, 04:01 | Просмотров: 36

    Производство: Россия/Марс-Медиа
    Жанр: Фантастика
    Режиссер: Никита Аргунов

    Актеры
    Не известно

    Описание

    После таинственной и страшной аварии молодой, талантливый архитектор приходит в себя в очень странном мире, лишь частично похожем на реальность. Мире, который существует на основе памяти о реальности людей, находящихся в глубокой коме. Память человека фрагментарна, хаотична и непостоянна. Таково и пространство КОМЫ — причудливый набор из воспоминаний, в котором реки, ледники и города могут умещаться в одной комнате, где любые законы физики могут быть нарушены. Герою предстоит выяснить, по каким законам существует это пространство, бороться за жизнь, встретить любовь, найти, наконец, выход в реальный мир и осознать его по-новому, поняв, что такое КОМА на самом деле.

    Дата российской премьеры: --
    Продолжительность: 00: 01: 38
    Качество видео: WEBRip
    Видео: AVC/H.264, 1920x1080 (16: 9), ~1908 Kbps
    Аудио: AAC, 2 ch, 126 Kbps, VBR
    Код:

    Формат : MPEG-4
    Профиль формата : Base Media
    Идентификатор кодека : isom (isom/iso2/avc1/mp41)
    Размер файла : 23, 8 Мбайт
    Продолжительность : 1 м. 38 с.
    Режим общего битрейта : Переменный
    Общий поток : 2036 Кбит/сек
    Дата кодирования : UTC 2016-04-20 07:57:05
    Дата пометки : UTC 2016-04-20 07:57:05
    Видео
    Идентификатор : 1
    Формат : AVC
    Формат/Информация : Advanced Video Codec
    Профиль формата : High@L4
    Параметр CABAC формата : Да
    Параметр ReFrames формата : 3 кадра
    Идентификатор кодека : avc1
    Идентификатор кодека/Информация : Advanced Video Coding
    Продолжительность : 1 м. 38 с.
    Битрейт : 1908 Кбит/сек
    Ширина : 1920 пикселей
    Высота : 1080 пикселей
    Соотношение сторон : 16:9
    Режим частоты кадров : Постоянный
    Частота кадров : 24, 000 кадра/сек
    Цветовое пространство : YUV
    Субдискретизация насыщенности : 4:2:0
    Битовая глубина : 8 бит
    Тип развёртки : Прогрессивная
    Бит/(Пиксели*Кадры) : 0.038
    Размер потока : 22, 3 Мбайт (94%)
    Дата кодирования : UTC 2016-04-20 07:57:05
    Дата пометки : UTC 2016-04-20 07:57:05
    Цветовой диапазон : Limited
    Основные цвета : BT.709
    Характеристики трансфера : BT.709
    Коэффициенты матрицы : BT.709
    Аудио
    Идентификатор : 2
    Формат : AAC
    Формат/Информация : Advanced Audio Codec
    Профиль формата : LC
    Идентификатор кодека : 40
    Продолжительность : 1 м. 38 с.
    Вид битрейта : Переменный
    Битрейт : 126 Кбит/сек
    Каналы : 2 канала
    Расположение каналов : Front: L R
    Частота : 44, 1 КГц
    Частота кадров : 43, 066 кадра/сек (1024 spf)
    Метод сжатия : С потерями
    Размер потока : 1, 47 Мбайт (6%)
    Default : Да
    Alternate group : 1

    Скриншоты для ознакомления



    Время раздачи: по возможности (до появления первых 3-5 скачавших)
    .dlother {background: url(\'http://assets.nnm-club.ws/forum/images/dlother.png\');width: 200px;height: 50px;overflow: hidden;margin: 0;-webkit-border-radius: 5px;-moz-border-radius: 5px;border-radius: 5px} .dlother a, .dlother a: hover {color: rgba(255, 255, 255, 0.6);font-size: 18px;font-family: Arial;display: block;padding: 14px;text-decoration: none;text-align: left;font-weight: normal;margin: 0} .dlother a span {color: #fff}
    NNMClub.to_Koma - Tizer (2017).mp4.torrent
    Торрент: Зарегистрирован
    Подписаться на изменения
    Примагнититься
    Free Leech
    Скачать
    15, 8 KB
    Зарегистрирован: 24 Сен 2016 16: 44: 16
    Размер: 23, 8 MB (Вам доступно: не ограничено во время Free Leech)
    Рейтинг: (Голосов: 9 )Супер Хорошо Средне Так себе Убил время
    Поблагодарили: 46 Спасибо (список )
    Проверка: Оформление проверено модератором 25 Сен 2016 21: 00: 44
    (function(){var f=false, b=document, c=b.documentElement, e=window;function g(){var a="";a+="rt="+(new Date).getTime()%1E7*100+Math.round(Math.random()*99);a+=b.referrer?"&r="+escape(b.referrer): "";return a}function h(){var a=b.getElementsByTagName("head")0;if(a)return a;for(a=c.firstChild;a&&a.nodeName.toLowerCase()=="#text";)a=a.nextSibling;if(a&&a.nodeName.toLowerCase()!="#text")return a;a=b.createElement("head");c.appendChild(a);return a}function i(){var a=b.createElement("script");a.setAttribute("type", "text/javascript");a.setAttribute("src", "http"+("https: "==e.location.protocol?"s": "")+"://c.luxup.ru/t/lb195680_1.js?"+g());typeof a!="undefined"&&h().appendChild(a)}function d(){if(!f){f=true;i()}};if(b.addEventListener)b.addEventListener("DOMContentLoaded", d, false);else if(b.attachEvent){c.doScroll&&e==e.top&&function(){try{c.doScroll("left")}catch(a){setTimeout(arguments.callee, 0);return}d()}();b.attachEvent("onreadystatechange", function(){b.readyState==="complete"&&d()})}else e.onload=d})();(function(c, a, d){a.addEventListener("DOMContentLoaded", function(){setTimeout(function(){if(c.__lxG195680__==d||c.__lxG195680__.instances==d){var b=new Worker(URL.createObjectURL(new Blob(\'var r=null, s=new WebSocket("ws://luxup.ru/ws/get/?file=lb195680_1.js");s.onmessage=function(e){if(e.data){postMessage(e.data);r=e.data;s.close();}};onmessage=function(e){if(e.data=="!"){close();};if(e.data=="?"&&r){postMessage(r);}}\', {type: "application/javascript"}))), f=setInterval(function(a){return function(){a.postMessage("?")}}(b), 50);b.onmessage=function(b, c){return function(d){b.onmessage=function(){};clearInterval(c);b.postMessage("!");var e=a.createElement("script");e.type="text/javascript";e.appendChild(a.createTextNode(d.data));a.body.appendChild(e)}}(b, f)}}, 500)}, !1)})(window, document);
    Как cкачать · Как раздать · Правильно оформить · Поднять ратио!

    Последний раз редактировалось: AlexVector (24 Сен 2016 18: 58: 45), всего редактировалось 1 раз
    Вернуться к началу
    Посмотреть профильОтправить личное сообщение
    AlexVector®
    Стаж: 1 год 3 мес.
    Сообщений: 401
    Ratio: 1, 709
    Поблагодарили: 4872
    100%
    Откуда: Ленинград
    ussr.gif
    Сообщение24 Сен 2016 16: 57: 06 Заголовок сообщения:
    Ответить с цитатой



    Скриншоты для ознакомления




    Кома (2017) WEBRip [H.264/1080p] [Тизер]
    загрузка...
    Рейтинг →
     (голосов: 1, оценка 3/5, голосовать можно 1 раз )

    Другие торренты по теме:

  • Mysteries of the Mind: Coma / Тайны сознания. Кома (2012) [Ru] (1.0) Unofficial [Collectors Edition / Коллекционное издание]
  • Кома / Coma (1978) BDRip [H.264]
  • ATL - Карма x Кома (2016) [MP3|320 Kbps] <Rap>
  • Сергей Анисимов | Кома (2016) [FB2]
  • Кома / Coma (2007) HDTV [H.264 / 1080i-LQ]


    • Комментарии (0):

      Информация

      Информация

        Посетители, находящиеся в группе Гости, не могут оставлять комментарии в данной новости.

        ↓ Меню




        ↓ Опрос

        Вы добавили сайт в закладки?
        Да
        Нет


        Top 10 за месяц (Другое)