.
Авторизация | Регистрация
Хочешь лучшие торренты? Добавь свой email!
Добавить

Торрент скачать бесплатно

» » Ордер на смерть / Death Warrant (1990) BDRip [H.264 / 1080p-LQ] [hand-made change colored space] торрент скачать бесплатно




    Ордер на смерть / Death Warrant (1990) BDRip [H.264 / 1080p-LQ] [hand-made change colored space] торрент скачать бесплатно

    Опубликовал: Админ | Дата: 20-09-2016, 04:01 | Просмотров: 42

    Производство: Канада, США/Pathe Pictures International
    Жанр: Боевик, Триллер, Криминал, Детектив
    Режиссер: Деран Сарафян

    Актеры
    Жан-Клод Ван Дамм, Роберт Гийом, Синтия Гибб, Джордж Дикерсон, Арт ЛаФлёр, Пэтрик Килпэтрик, Джошуа Джон Миллер, Хэнк Стоун, Конрад Данн, Джек Бэннон и др.

    Описание

    Офицер Луис Берк, нечистый на руку полицейский детектив, отправляется под видом осужденного в тюрьму Харрисон, чтобы раскрыть серию убийств заключенных. В стенах тюрьмы он сталкивается с жестокостью сокамерников, с коррумпированными охранниками, со смертью и предательством всех мастей.
    Когда Берк узнает шокирующую тайну тюрьмы, он должен совершить дерзкий побег — его последний шанс вырваться из лап сотен осужденных головорезов, возглавляемых его кровным врагом — Заговорённым.

    Возраст: 16+ (зрителям, достигшим 16 лет)
    Рейтинг MPAA: R (лицам до 17 лет обязательно присутствие взрослого)
    Релиз от: R.G. Goldenshara
    Продолжительность: 01: 29: 03
    Качество видео: BDRip
    Перевод: Двухголосый закадровый, профессиональный (НТВ)
    Видео: AVC/H.264, 1920x1036 (1.85: 1), ~6800 kbps, 23.976 fps
    Аудио: AC3, 2 ch, 48 kHz, 224 kbps, CBR
    Код:

    General
    Unique ID : 203383101003583067560600673755234662364 (0x99022912A12623B48D748E521C4977DC)
    Complete name : E:Мои рипыОрдер на смерть.1990.BDRip.1080p.DVO.mkv
    Format : Matroska
    Format version : Version 4/Version 2
    File size : 4.37 GiB
    Duration : 1h 29mn
    Overall bit rate : 7 018 Kbps
    Encoded date : UTC 2016-09-18 15:10:45
    Writing application : mkvmerge v6.3.0 (\'You can\'t stop me!\') built on Jun 28 2013 20:09:41
    Writing library : libebml v1.3.0 + libmatroska v1.4.0
    Video
    ID : 1
    Format : AVC
    Format/Info : Advanced Video Codec
    Format profile :High@L4.1
    Format settings, CABAC : Yes
    Format settings, ReFrames : 4 frames
    Codec ID : V_MPEG4/ISO/AVC
    Duration : 1h 29mn
    Bit rate : 6 800 Kbps
    Width : 1 920 pixels
    Height : 1 036 pixels
    Display aspect ratio : 1.85:1
    Frame rate mode : Constant
    Frame rate : 23.976 fps
    Color space : YUV
    Chroma subsampling : 4:2:0
    Bit depth : 8 bits
    Scan type : Progressive
    Bits/(Pixel*Frame) : 0.143
    Stream size : 4.14 GiB (95%)
    Writing library : x264 core 130 r2273 b3065e6
    Encoding settings : cabac=1/ref=4/deblock=1:-3:-3/analyse=0x3:0x133/me=umh/subme=11/psy=1/psy_rd=1.00:0.15/mixed_ref=1/me_range=48/chroma_me=1/trellis=2/8x8dct=1/cqm=0/deadzone=21, 11/fast_pskip=0/chroma_qp_offset=-4/threads=6/lookahead_threads=1/sliced_threads=0/nr=0/decimate=1/interlaced=0/bluray_compat=0/constrained_intra=0/bframes=8/b_pyramid=2/b_adapt=2/b_bias=0/direct=2/weightb=1/open_gop=0/weightp=2/keyint=250/keyint_min=23/scenecut=40/intra_refresh=0/rc=2pass/mbtree=0/bitrate=6800/ratetol=1.0/qcomp=0.80/qpmin=0/qpmax=69/qpstep=4/cplxblur=20.0/qblur=0.5/ip_ratio=1.40/pb_ratio=1.30/aq=2:1.00
    Language : English
    Default : Yes
    Forced : No
    Color range : Limited
    Color primaries : Generic film
    Matrix coefficients : YCgCo
    Audio
    ID : 2
    Format : AC-3
    Format/Info : Audio Coding 3
    Format profile : Dolby Digital
    Mode extension : CM (complete main)
    Format settings, Endianness : Big
    Codec ID : A_AC3
    Duration : 1h 29mn
    Bit rate mode : Constant
    Bit rate : 224 Kbps
    Channel(s) : 2 channels
    Channel positions : Front: L R
    Sampling rate : 48.0 KHz
    Compression mode : Lossy
    Delay relative to video : 194ms
    Stream size : 143 MiB (3%)
    Title : DVO (НТВ)
    Language : Russian
    Default : Yes
    Forced : No
    Menu
    00:00:00.000 : en:Chapter 1
    00:05:19.986 : en:Chapter 2
    00:09:28.401 : en:Chapter 3
    00:15:58.499 : en:Chapter 4
    00:22:16.835 : en:Chapter 5
    00:25:21.269 : en:Chapter 6
    00:33:30.008 : en:Chapter 7
    00:36:32.231 : en:Chapter 8
    00:42:44.478 : en:Chapter 9
    00:46:57.397 : en:Chapter 10
    00:51:52.067 : en:Chapter 11
    00:55:57.854 : en:Chapter 12
    01:02:11.185 : en:Chapter 13
    01:08:19.929 : en:Chapter 14
    01:14:06.817 : en:Chapter 15
    01:24:30.982 : en:Chapter 16
    01:29:03.296 : en:Chapter 17


    Скриншоты для ознакомления




    Ордер на смерть/Death Warrant (1990) BDRip [H.264/1080p-LQ] [hand-made change colored space]
    загрузка...
    Рейтинг →
     (голосов: 1, оценка 4/5, голосовать можно 1 раз )

    Другие торренты по теме:



      Комментарии (0):

      Информация

      Информация

        Посетители, находящиеся в группе Гости, не могут оставлять комментарии в данной новости.

        ↓ Меню




        ↓ Опрос

        Вы добавили сайт в закладки?
        Да
        Нет


        Top 10 за месяц (Другое)