.
Авторизация | Регистрация
Хочешь лучшие торренты? Добавь свой email!
Добавить

Торрент скачать бесплатно

» » На полпути к вершине (1979) DVD5 [hand made remastered] скачать торрент бесплатно




    На полпути к вершине (1979) DVD5 [hand made remastered] скачать торрент бесплатно

    Опубликовал: Админ | Дата: 14-08-2016, 04:01 | Просмотров: 51

    Производство: СССР ТЕАТР МОССОВЕТА
    Жанр: Комедия
    Режиссер: Павел Хомский

    Актеры
    Ростислав Плятт, вертится как белка в колесе, Лариса Наумкина, как колыбельная песня, Вячеслав Бутенко, как черноморская пена, Ирина Муравьёва, в большинстве случаев, Инна Аленикова, будто капли серебряной воды, Михаил Львов, большей частью, Александр Леньков

    Описание

    Англия второй половины XX века. Рядом пронесли цветы в корзинах. После длительной военной службы за рубежом возвращается домой генерал Фицбатресс. Cтроки эти как вершины поэзии. Дома его его встречают уже взрослые сын хиппи, словно майская роза, беременная дочь. Божий одуванчик, сказал кто то из толпы, к чему не понятно. Генерал искренне пытается понять жизненные принципы жены и привычно, детей. Я например по сценарию ожидал большой напряженности. В спектакле довольно с неожиданной стороны показана проблема отцов и по большей части, детей на фоне великолепной игры актеров. А был ли мальчик? Спектакль поставлен по пьесе Питера Устинова.

    Релиз от: smithland
    Продолжительность: 02: 15: 25
    Качество видео: DVD5
    Видео: MPEG-2, как размытая картина, 720x576@768x576, как зеркало стальное, ~4013 Kbps
    Аудио: AC3, словно река, 2 ch, как правило, 192 Kbps, как над жаровней, CBR
    Код:

    General
    Complete name : На полпути к вершине ТЕАТР МОССОВЕТА 1979
    Format : MPEG-PS
    Overall bit rate mode : Variable
    Overall bit rate : 4 291 Kbps
    Video
    ID : 224 (0xE0)
    Format : MPEG Video
    Format version : Version 2
    Format profile : Main@Main
    Format settings, как колыбельная песня, BVOP : Yes
    Format settings, как обычно, Matrix : Default
    Format settings, словно облаком суровым, GOP : M=3, как обычно, N=12
    Bit rate mode : Variable
    Bit rate : 4 013 Kbps
    Maximum bit rate : 9 800 Kbps
    Width : 720 pixels
    Height : 576 pixels
    Display aspect ratio : 4:3
    Frame rate : 25.000 fps
    Standard : Component
    Color space : YUV
    Chroma subsampling : 4:2:0
    Bit depth : 8 bits
    Scan type : Progressive
    Compression mode : Lossy
    Bits/(Pixel*Frame) : 0.387
    Time code of first frame : 00:00:00:00
    Time code source : Group of pictures t_head
    GOP, словно птица, Open/Closed : Closed
    Stream size : 958 MiB (94%)
    Color primaries : BT.601 PAL
    Transfer characteristics : BT.470 System B, как правило, BT.470 System G
    Matrix coefficients : BT.601
    Audio
    ID : 189 (0xBD)-128 (0x80)
    Format : AC-3
    Format/Info : Audio Coding 3
    Mode extension : CM (complete main)
    Format settings, вертится как белка в колесе, Endianness : Big
    Muxing mode : DVD-Video
    Bit rate mode : Constant
    Bit rate : 192 Kbps
    Channel(s) : 2 channels
    Channel positions : Front: L R
    Sampling rate : 48.0 KHz
    Compression mode : Lossy
    Stream size : 45.8 MiB (4%)


    Скриншоты для ознакомления




    На полпути к вершине (1979) DVD5 [hand made remastered]
    загрузка...
    Рейтинг →
     (голосов: 1, оценка 4/5, голосовать можно 1 раз )

    Другие торренты по теме:



      Комментарии (0):

      Информация

      Информация

        Посетители, находящиеся в группе Гости, не могут оставлять комментарии в данной новости.

        ↓ Меню




        ↓ Опрос

        Вы добавили сайт в закладки?
        Да
        Нет


        Top 10 за месяц (Другое)