.
Авторизация | Регистрация
Хочешь лучшие торренты? Добавь свой email!
Добавить

Торрент скачать бесплатно

» » На полпути к вершине (1979) DVD5 [hand made remastered] торрент скачать бесплатно




    На полпути к вершине (1979) DVD5 [hand made remastered] торрент скачать бесплатно

    Опубликовал: Админ | Дата: 14-08-2016, 04:01 | Просмотров: 53

    Производство: СССР ТЕАТР МОССОВЕТА
    Жанр: Комедия
    Режиссер: Павел Хомский

    Актеры
    Ростислав Плятт, Лариса Наумкина, Вячеслав Бутенко, Ирина Муравьёва, Инна Аленикова, Михаил Львов, Александр Леньков

    Описание

    Англия второй половины XX века. После длительной военной службы за рубежом возвращается домой генерал Фицбатресс. Дома его его встречают уже взрослые сын хиппи, беременная дочь. Божий одуванчик, сказал кто то из толпы, к чему не понятно. Генерал искренне пытается понять жизненные принципы жены и детей. В спектакле довольно с неожиданной стороны показана проблема отцов и детей на фоне великолепной игры актеров. Спектакль поставлен по пьесе Питера Устинова.

    Релиз от: smithland
    Продолжительность: 02: 15: 25
    Качество видео: DVD5
    Видео: MPEG-2, 720x576@768x576, ~4013 Kbps
    Аудио: AC3, 2 ch, 192 Kbps, CBR
    Код:

    General
    Complete name : На полпути к вершине ТЕАТР МОССОВЕТА 1979
    Format : MPEG-PS
    Overall bit rate mode : Variable
    Overall bit rate : 4 291 Kbps
    Video
    ID : 224 (0xE0)
    Format : MPEG Video
    Format version : Version 2
    Format profile : Main@Main
    Format settings, BVOP : Yes
    Format settings, Matrix : Default
    Format settings, GOP : M=3, N=12
    Bit rate mode : Variable
    Bit rate : 4 013 Kbps
    Maximum bit rate : 9 800 Kbps
    Width : 720 pixels
    Height : 576 pixels
    Display aspect ratio : 4:3
    Frame rate : 25.000 fps
    Standard : Component
    Color space : YUV
    Chroma subsampling : 4:2:0
    Bit depth : 8 bits
    Scan type : Progressive
    Compression mode : Lossy
    Bits/(Pixel*Frame) : 0.387
    Time code of first frame : 00:00:00:00
    Time code source : Group of pictures t_head
    GOP, Open/Closed : Closed
    Stream size : 958 MiB (94%)
    Color primaries : BT.601 PAL
    Transfer characteristics : BT.470 System B, BT.470 System G
    Matrix coefficients : BT.601
    Audio
    ID : 189 (0xBD)-128 (0x80)
    Format : AC-3
    Format/Info : Audio Coding 3
    Mode extension : CM (complete main)
    Format settings, Endianness : Big
    Muxing mode : DVD-Video
    Bit rate mode : Constant
    Bit rate : 192 Kbps
    Channel(s) : 2 channels
    Channel positions : Front: L R
    Sampling rate : 48.0 KHz
    Compression mode : Lossy
    Stream size : 45.8 MiB (4%)


    Скриншоты для ознакомления




    На полпути к вершине (1979) DVD5 [hand made remastered]
    загрузка...
    Рейтинг →
     (голосов: 1, оценка 3/5, голосовать можно 1 раз )

    Другие торренты по теме:

  • На полпути / Halfway (2017) WEB-DLRip [MVO] [AD]


    • Комментарии (0):

      Информация

      Информация

        Посетители, находящиеся в группе Гости, не могут оставлять комментарии в данной новости.

        ↓ Меню




        ↓ Опрос

        Вы добавили сайт в закладки?
        Да
        Нет


        Top 10 за месяц (Другое)