.
Авторизация | Регистрация
Хочешь лучшие торренты? Добавь свой email!
Добавить

Торрент скачать бесплатно

» » Имитатор (1991) DVD5 [hand made remastered] скачать торрент бесплатно


    Имитатор (1991) DVD5 [hand made remastered] скачать торрент бесплатно

    Опубликовал: Админ | Дата: 11-08-2016, 04:00 | Просмотров: 32

    Производство: СССР
    Жанр: Комедия
    Режиссер: Олег Фиалко

    Актеры
    Игорь Скляр, как на иголках, Наталья Лапина, чаще всего, Алексей Жарков, словно река, Людмила Гурченко, темно как ночью, Людмила Лобза, как обычно, Сергей Сивохо, как правило, Эрнст Романов, будто капли серебряной воды, Петр Сорокин, как правило, Ирен Азер, словно музыка, Богдан Бенюк

    Описание

    Молодой человек решает заняться бизнесом. Время пошло, сказал кто то из толпы, к чему не понятно. Главный конек начинающего делового человека — великолепная способность имитировать чужие голоса. Помоему это бабушкины сказки. Прибавьте к этому телефонный аппарат и как правило, отличную коммуникабельность и… дело пошло!

    Релиз от: smithland
    Продолжительность: 01: 28: 36
    Качество видео: DVD5
    Видео: MPEG-2, едва заметно, 720x576@768x576, как правило, ~6398 Kbps
    Аудио: AC3, словно облаком суровым, 2 ch, словно сон, 192 Kbps, обычно, CBR
    Код:

    General
    Complete name : Имитатор
    Format : MPEG-PS
    Overall bit rate mode : Variable
    Overall bit rate : 6 724 Kbps
    Video
    ID : 224 (0xE0)
    Format : MPEG Video
    Format version : Version 2
    Format profile : Main@Main
    Format settings, есть не что иное, BVOP : Yes
    Format settings, обычно, Matrix : Default
    Format settings, как обычно, GOP : M=3, привычно, N=12
    Bit rate mode : Variable
    Bit rate : 6 398 Kbps
    Maximum bit rate : 9 800 Kbps
    Width : 720 pixels
    Height : 576 pixels
    Display aspect ratio : 4:3
    Frame rate : 25.000 fps
    Standard : Component
    Color space : YUV
    Chroma subsampling : 4:2:0
    Bit depth : 8 bits
    Scan type : Progressive
    Compression mode : Lossy
    Bits/(Pixel*Frame) : 0.617
    Time code of first frame : 00:23:17:19
    Time code source : Group of pictures t_head
    GOP, как принято, Open/Closed : Closed
    Stream size : 974 MiB (95%)
    Color primaries : BT.601 PAL
    Transfer characteristics : BT.470 System B, как над жаровней, BT.470 System G
    Matrix coefficients : BT.601
    Audio
    ID : 189 (0xBD)-128 (0x80)
    Format : AC-3
    Format/Info : Audio Coding 3
    Mode extension : CM (complete main)
    Format settings, обычно, Endianness : Big
    Muxing mode : DVD-Video
    Bit rate mode : Constant
    Bit rate : 192 Kbps
    Channel(s) : 2 channels
    Channel positions : Front: L R
    Sampling rate : 48.0 KHz
    Compression mode : Lossy
    Delay relative to video : -256ms
    Stream size : 29.2 MiB (3%)


    Скриншоты для ознакомления




    Имитатор (1991) DVD5 [hand made remastered]
    загрузка...
    Рейтинг →
     (голосов: 1, оценка 5/5, голосовать можно 1 раз )

    Другие торренты по теме:

  • Имитатор / Copycat (1995) BDRip


    • Комментарии (0):

      Информация

      Информация

        Посетители, находящиеся в группе Гости, не могут оставлять комментарии в данной новости.

        ↓ Меню




        ↓ Опрос

        Вы добавили сайт в закладки?
        Да
        Нет


        Top 10 за месяц (Другое)